<?xml version="1.0" standalone="no"?>
<!DOCTYPE svg PUBLIC "-//W3C//DTD SVG 1.1//EN" "http://www.w3.org/Graphics/SVG/1.1/DTD/svg11.dtd" >
<svg xmlns="http://www.w3.org/2000/svg" xmlns:xlink="http://www.w3.org/1999/xlink" version="1.1">
<metadata>
Created by FontForge 20150827 at Thu Oct 19 10:01:28 2017
 By sunny
</metadata>
<defs>
<font id="nextgen-iconsiconsiconsicons" horiz-adv-x="512" >
  <font-face 
    font-family="nextgen-iconsiconsiconsicons"
    font-weight="400"
    font-stretch="normal"
    units-per-em="512"
    panose-1="2 0 5 3 0 0 0 0 0 0"
    ascent="480"
    descent="-32"
    bbox="-2 -33.3778 513.5 483"
    underline-thickness="0"
    underline-position="0"
    unicode-range="U+000D-F413"
  />
<missing-glyph horiz-adv-x="500" 
 />
    <glyph glyph-name=".notdef" horiz-adv-x="500" 
 />
    <glyph glyph-name="uni000D" unicode="&#xd;" horiz-adv-x="170" 
 />
    <glyph glyph-name="uni25FC" unicode="&#x25fc;" horiz-adv-x="500" 
d="M0 0v0v0v0v0z" />
    <glyph glyph-name="uniE000" unicode="&#xe000;" horiz-adv-x="432" 
d="M0 48v48h432v-48h-432zM0 168v48h432v-48h-432zM0 336h432v-48h-432v48z" />
    <glyph glyph-name="uniE001" unicode="&#xe001;" 
d="M373 62l-101 56q25 20 36.5 54.5t11.5 65.5v68q0 34 -37.5 64t-82 30t-82.5 -30.5t-38 -63.5v-68q0 -28 12.5 -63.5t37.5 -56.5l-103 -56q-27 -12 -27 -27v-40q0 -11 8 -19t19 -8h346q11 0 19 8t8 19v40q0 5 -3 9.5t-6.5 7.5t-7.5 5.5t-7 3.5zM368 0h-336v28q4 3 8 5
q1 1 2 1l104 56q15 8 16.5 25.5t-12.5 27.5q-18 15 -28 43.5t-10 51.5v68q0 18 28.5 40t60.5 22t59.5 -21.5t27.5 -40.5v-68q0 -24 -8.5 -52t-27.5 -43q-13 -10 -11.5 -27.5t16.5 -25.5l101 -56q1 0 3 -1q3 -2 7 -4v-29zM485 142l-102 56q25 20 37 54.5t12 65.5v67
q0 34 -38 64.5t-83 30.5q-28 0 -55.5 -13.5t-45.5 -34.5q31 -2 40 -5q27 21 61 21q33 0 61 -22t28 -41v-67q0 -24 -9 -52t-28 -43q-14 -11 -12.5 -28t16.5 -25l103 -56q1 -1 3 -1q3 -2 7 -5v-28h-65q10 -8 17 -32h53q11 0 19 8t8 19v40q0 7 -7 14t-13 10z" />
    <glyph glyph-name="uniE002" unicode="&#xe002;" 
d="M32 33q0 12 13 18l141 66q16 8 18 25.5t-11 28.5q-23 19 -36 54.5t-13 62.5v80q0 26 36.5 53t75.5 27q40 0 76 -27t36 -53v-80q0 -28 -12 -63t-35 -54q-14 -11 -12 -28.5t18 -25.5l48 -23l8 32l-42 20q30 24 44.5 65.5t14.5 76.5v80q0 40 -46 76t-98.5 36t-98 -36
t-45.5 -76v-80q0 -33 15 -75t46 -67l-141 -66q-4 -1 -9 -4t-14 -11.5t-9 -16.5v-48q0 -13 9.5 -22.5t22.5 -9.5h352v32h-352v33zM496 64h-48v48q0 7 -4.5 11.5t-11.5 4.5t-11.5 -4.5t-4.5 -11.5v-48h-48q-7 0 -11.5 -4.5t-4.5 -11.5t4.5 -11.5t11.5 -4.5h48v-48
q0 -7 4.5 -11.5t11.5 -4.5t11.5 4.5t4.5 11.5v48h48q7 0 11.5 4.5t4.5 11.5t-4.5 11.5t-11.5 4.5z" />
    <glyph glyph-name="uniE003" unicode="&#xe003;" 
d="M32 0v33q0 12 13 18l141 66q16 8 18 25.5t-12 28.5q-23 19 -35.5 54t-12.5 63v80q0 26 36 53t76 27q39 0 75.5 -27t36.5 -53v-80q0 -28 -12 -63t-36 -54q-14 -11 -11.5 -28.5t18.5 -25.5l81 -39l19 27l-87 41q30 24 45 65.5t15 76.5v80q0 40 -46 76t-98.5 36t-98 -36
t-45.5 -76v-80q0 -33 15 -75t45 -67l-140 -66q-4 -1 -9 -4t-14 -11.5t-9 -16.5v-48q0 -13 9 -22.5t23 -9.5h320l-26 32h-294zM506.5 118q-12.5 10 -22.5 -2l-69 -105l-42 43q-12 11 -23 0q-5 -5 -5 -11.5t5 -11.5l57 -56q11 -12 22 0q2 2 4 5l76 116q10 12 -2.5 22z" />
    <glyph glyph-name="uniE004" unicode="&#xe004;" 
d="M400 288v80q0 40 -46 76t-98.5 36t-98 -36t-45.5 -76v-80q0 -33 15 -75t45 -66l-140 -67q-4 -1 -9 -4t-14 -11.5t-9 -16.5v-48q0 -13 9 -22.5t23 -9.5h304v32h-304v33q0 12 13 18l141 66q16 8 18 25.5t-12 28.5q-23 19 -35.5 54.5t-12.5 62.5v80q0 26 36 53t76 27
q39 0 75.5 -27t36.5 -53v-80q0 -28 -12 -63t-36 -54q-14 -11 -11.5 -28.5t18.5 -25.5l9 -4l14 26l-10 7q30 24 45 65.5t15 76.5zM462 41l46 45q11 11 -0.5 22.5t-22.5 -0.5l-45 -45l-46 45q-11 12 -22.5 0.5t0.5 -22.5l45 -45l-45 -46q-12 -11 -0.5 -22.5t22.5 0.5l46 45
l45 -45q11 -12 22.5 -0.5t0.5 22.5z" />
    <glyph glyph-name="uniE005" unicode="&#xe005;" 
d="M256 448q40 0 76 -27t36 -53v-80q0 -28 -12 -63t-35 -54q-14 -11 -12 -28.5t18 -25.5l139 -66h1q13 -4 13 -19v-32h-448v33q0 12 13 18l141 67q16 7 18 24.5t-11 29.5q-23 18 -36 53.5t-13 62.5v80q0 26 36.5 53t75.5 27zM255.5 480q-52.5 0 -98 -36t-45.5 -76v-80
q0 -33 15 -75t45 -66l-140 -67q-4 -1 -9 -4t-14 -11.5t-9 -16.5v-48q0 -13 9.5 -22.5t22.5 -9.5h448q13 0 22.5 9.5t9.5 22.5v48q0 9 -8 17t-16 11l-8 4l-139 66q30 24 44.5 65.5t14.5 76.5v80q0 40 -46 76t-98.5 36z" />
    <glyph glyph-name="uniE006" unicode="&#xe006;" 
d="M368 16h-225q-7 0 -11.5 -4.5t-4.5 -11.5t4.5 -11.5t11.5 -4.5h225q7 0 11.5 4.5t4.5 11.5t-4.5 11.5t-11.5 4.5zM509 419q-3 13 -16 13h-78v16q0 7 -5 11.5t-11 4.5h-288q-7 0 -11.5 -4.5t-4.5 -11.5v-16h-76q-13 0 -16 -13q-1 -7 -2 -18t3.5 -36t18.5 -42
q27 -33 82 -35q15 -46 51.5 -76.5t82.5 -35.5v-111h-48q-7 0 -11.5 -5t-4.5 -11.5t4.5 -11t11.5 -4.5h129q7 0 11.5 4.5t4.5 11t-4.5 11.5t-11.5 5h-49v111q46 5 82 35.5t52 76.5q56 1 84 35q14 17 18.5 42t3.5 36t-2 18zM48 343q-16 20 -15 57h62v-54q0 -11 2 -25
q-33 3 -49 22zM383 346q0 -57 -37.5 -98t-90.5 -41t-90.5 41t-37.5 98v86h256v-86zM464 343q-17 -20 -51 -23q2 14 2 26v54h64q1 -37 -15 -57z" />
    <glyph glyph-name="uniE007" unicode="&#xe007;" 
d="M256 462q-106 0 -181 -75t-75 -181q0 -66 32 -123.5t88 -92.5q6 -4 12.5 -2.5t10 7t2 12t-7.5 10.5q-40 25 -66 64l16 10q6 3 8 9.5t-1.5 12t-10 7.5t-12.5 -2l-16 -9q-19 38 -22 81h18q6 0 11 5t5 11.5t-5 11t-11 4.5h-18q3 44 22 83l16 -9q4 -3 8 -3q10 0 14 8
q4 6 2 12.5t-8 9.5l-16 9q25 36 60 60l9 -16q5 -8 14 -8q5 0 8 2q6 4 7.5 10.5t-1.5 11.5l-9 16q38 18 81 21v-20q0 -6 4.5 -11t11 -5t11.5 5t5 11v20q43 -3 82 -22l-9 -15q-3 -5 -1.5 -11.5t7.5 -10.5q4 -2 8 -2q9 0 14 8l9 15q35 -24 59 -59l-15 -9q-6 -3 -7.5 -9.5
t1.5 -12.5q5 -8 14 -8q4 0 8 3l15 8q19 -39 22 -82h-18q-6 0 -11 -4.5t-5 -11.5t5 -11.5t11 -4.5h18q-3 -43 -21 -81l-16 9q-6 4 -12.5 2t-9.5 -7.5t-1.5 -12t7.5 -9.5l16 -9q-27 -41 -69 -66q-5 -4 -7 -10.5t2 -11.5q5 -8 14 -8q4 0 8 2q57 36 89.5 93.5t32.5 124.5
q0 106 -75 181t-181 75zM374 256q6 3 7.5 9.5t-1.5 12.5t-9.5 7.5t-12.5 -1.5l-87 -50q-7 4 -15 4q-14 0 -23 -9.5t-9 -22.5t9 -22.5t22.5 -9.5t22.5 9.5t9 22.5z" />
    <glyph glyph-name="uniE008" unicode="&#xe008;" 
d="M470 385q-32 23 -214 23q-174 0 -208 -20q-20 -12 -31.5 -51.5t-14 -66t-2.5 -49.5q0 -25 2.5 -51.5t14.5 -62.5t31 -47q34 -20 208 -20q182 0 214 23q42 30 42 158q0 26 -2 52t-12 63t-28 49zM452 89q-24 -17 -196 -17q-166 0 -191 15q-13 8 -22.5 44t-10.5 90
q1 54 11 93t22 47q26 15 191 15q172 0 196 -17q11 -8 19.5 -46t8.5 -92t-8.5 -89t-19.5 -43zM360 237l-144 88q-8 5 -16 0.5t-8 -14.5v-176q0 -10 8 -14q4 -2 8 -2t8 2l144 88q8 5 8 14t-8 14zM224 163v120l97 -60z" />
    <glyph glyph-name="uniE009" unicode="&#xe009;" 
d="M342 401q40 0 67 -29q32 7 59 22q-11 -32 -41 -49q28 3 53 14q-19 -27 -46 -46v-12q0 -45 -17.5 -89.5t-49 -81.5t-82.5 -60t-112 -23q-77 0 -141 40q11 -1 22 -1q64 0 114 38q-30 1 -53.5 18t-32.5 44q9 -1 17 -1q13 0 25 3q-32 6 -53 30.5t-21 56.5v1q19 -10 42 -11
q-41 27 -41 75q0 24 12 44q35 -41 84 -65.5t106 -27.5q-3 10 -3 20q0 37 27 63.5t65 26.5zM480 359zM342 433q-47 0 -82 -30.5t-41 -75.5q-80 17 -131 78q-10 11 -25 11h-2q-17 -1 -25 -15q-17 -28 -17 -61q0 -22 7 -42q-8 -9 -8 -22v-1q0 -47 33 -82q-2 -8 1 -17
q10 -32 36 -54q-16 -4 -34 -4q-10 0 -18 1h-4q-23 0 -30 -21q-4 -11 -0.5 -21.5t13.5 -16.5q72 -45 158 -45q66 0 122 24.5t92.5 64.5t57.5 90t21 103q23 19 40 43q6 8 6 19q0 17 -14 26q6 21 -10 34q-9 7 -20 7q-9 0 -16 -4q-16 -9 -34 -15q-34 26 -76 26z" />
    <glyph glyph-name="uniE00A" unicode="&#xe00a;" 
d="M264 448v-112h112v-48h-111l-1 -139q0 -39 4 -50q4 -10 16.5 -18t32.5 -8q44 0 75 23v-74q-17 -8 -52 -17q-22 -5 -49 -5q-77 0 -100 60q-7 16 -7 47v181h-64v49q11 0 23 4t27.5 14.5t25.5 34.5t10 58h58zM264 480h-58q-14 0 -23 -9.5t-9 -22.5q0 -25 -6.5 -42.5
t-16.5 -24.5t-17 -9.5t-14 -2.5q-13 0 -22.5 -9t-9.5 -23v-49q0 -13 9.5 -22.5t22.5 -9.5h32v-149q0 -37 9 -59q31 -80 130 -80q30 0 57 6l3 1q35 8 55 18q18 8 18 29v74q0 20 -18 29q-6 3 -14 3q-11 0 -19 -6q-23 -17 -56 -17q-14 0 -19 5q-2 10 -2 39v107h80
q13 0 22.5 9.5t9.5 22.5v48q0 13 -9.5 22.5t-22.5 9.5h-80v80q0 13 -9.5 22.5t-22.5 9.5z" />
    <glyph glyph-name="uniE00B" unicode="&#xe00b;" 
d="M291 440h3h42l-1 -48h-41q-10 0 -15.5 -5t-6.5 -10v-5v-76h80l-11 -48h-70v-240h-48v240h-63v48h63v75q0 22 8.5 37.5t21 21.5t21.5 8t17 2zM336 440zM291 472q-31 0 -55 -15q-45 -27 -45 -86v-43h-31q-14 0 -23 -9.5t-9 -22.5v-48q0 -13 9 -22.5t23 -9.5h31v-208
q0 -13 9.5 -22.5t22.5 -9.5h48q14 0 23 9.5t9 22.5v208h38q11 0 19.5 6.5t11.5 16.5l11 48q5 15 -5 28t-26 13h-48v32h31q14 0 23 9t9 23l1 46v2q0 13 -9.5 22.5t-22.5 9.5h-41h-4z" />
    <glyph glyph-name="uniE00C" unicode="&#xe00c;" 
d="M511.5 368q-0.5 8 -7.5 12l-142 89q-10 6 -19 -1l-87 -71l-87 71q-9 7 -19 1l-142 -89q-7 -4 -7.5 -12t5.5 -14l83 -69l-71 -56q-7 -5 -6.5 -13t7.5 -13l65 -43q-5 -5 -5 -12v-64q0 -9 8 -14l161 -91q3 -2 7.5 -2t8.5 2l159 91q8 5 8 14v75v3l62 41q7 5 7 13t-6 13
l-71 56l83 69q6 6 5.5 14zM368 285l-112 -71l-112 71l112 73zM43 365l115 71l71 -58l-114 -74zM115 265l113 -71l-64 -49l-109 73zM111 142l45 -30q9 -6 18 1l65 49v-141l-128 72v49zM399 93l-128 -73v144l66 -51q5 -4 10 -4t9 3l43 29v-48zM457 218l-109 -73l-64 49l113 71
zM397 304l-114 74l71 58l115 -71z" />
    <glyph glyph-name="uniE00D" unicode="&#xe00d;" 
d="M256 480q-51 0 -99 -20q-1 0 -3 -1q-69 -30 -111.5 -93.5t-42.5 -141.5q0 -106 75 -181t181 -75t181 75t75 181t-75 181t-181 75zM480 224v-3v-2q-78 20 -164 2q-10 24 -22 47q-1 1 -1.5 2t-0.5 2q97 37 131 101q57 -64 57 -149zM399 396q-6 -12 -15.5 -25.5t-38.5 -34.5
t-69 -36q-46 86 -87 138q33 10 67 10q81 0 143 -52zM158 425q40 -48 88 -135q-110 -33 -210 -24q10 52 42.5 94t79.5 65zM32 224v10q21 -2 45 -2q91 0 184 29l4 -8q11 -20 20 -41q-22 -7 -42 -16q-102 -46 -149 -126q-62 65 -62 154zM118 48q5 9 13 20t24 29t42.5 36.5
t58.5 33.5q20 9 41 15q34 -85 45 -165q-41 -17 -86 -17q-77 0 -138 48zM372 32q-12 78 -43 158q79 16 148 -4q-9 -48 -36.5 -88t-68.5 -66z" />
    <glyph glyph-name="uniE00E" unicode="&#xe00e;" 
d="M454 408q-9 8 -22 8h-2h-14q-35 0 -64 7q-14 3 -30.5 14t-32 23.5t-16.5 13.5q-8 6 -17.5 6t-17.5 -6q-1 0 -4 -2l-6 -7l-10 -9l-12 -9l-14 -10l-16 -9l-16 -5q-28 -7 -64 -7h-14h-2q-13 0 -22 -8q-10 -10 -10 -24v-80q0 -60 11 -111t27 -84.5t39 -60t41.5 -40.5
t39.5 -23.5t29.5 -12t14.5 -3.5q3 -1 5.5 -1t5.5 1q6 1 14 3.5t29.5 12t40.5 23.5t41.5 40.5t39 60t27.5 84.5t11 111v80q0 14 -10 24zM432 304q0 -199 -117 -277q-33 -22 -60 -27q-3 1 -9.5 3t-24.5 10.5t-35 20.5t-37 36.5t-34.5 54.5t-24.5 77t-10 102v80h16q40 0 72 8
q19 5 41 19t34 25l12 12q46 -45 90 -56q32 -8 71 -8h16v-80zM323.5 307q-11.5 11 -22.5 0l-45 -45l-45 45q-12 11 -23 0t0 -23l45 -45l-45 -45q-11 -12 0 -23t23 0l45 45l45 -45q11 -11 22.5 0t0.5 23l-45 45l45 45q11 12 -0.5 23z" />
    <glyph glyph-name="uniE00F" unicode="&#xe00f;" 
d="M416 480h-320q-20 0 -34 -14t-14 -34v-416q0 -20 14 -34t34 -14h320q20 0 34 14t14 34v416q0 20 -14 34t-34 14zM432 16q0 -7 -4.5 -11.5t-11.5 -4.5h-320q-7 0 -11.5 4.5t-4.5 11.5v416q0 7 4.5 11.5t11.5 4.5h320q7 0 11.5 -4.5t4.5 -11.5v-416zM256 80
q-13 0 -22.5 -9.5t-9.5 -22.5t9.5 -22.5t22.5 -9.5t22.5 9.5t9.5 22.5t-9.5 22.5t-22.5 9.5zM288 432h-64q-7 0 -11.5 -4.5t-4.5 -11.5t4.5 -11.5t11.5 -4.5h64q7 0 11.5 4.5t4.5 11.5t-4.5 11.5t-11.5 4.5z" />
    <glyph glyph-name="uniE010" unicode="&#xe010;" 
d="M352 480h-192q-20 0 -34 -14t-14 -34v-416q0 -20 14 -34t34 -14h192q20 0 34 14t14 34v416q0 20 -14 34t-34 14zM368 16q0 -7 -4.5 -11.5t-11.5 -4.5h-192q-7 0 -11.5 4.5t-4.5 11.5v416q0 7 4.5 11.5t11.5 4.5h192q7 0 11.5 -4.5t4.5 -11.5v-416zM256 80
q-13 0 -22.5 -9.5t-9.5 -22.5t9.5 -22.5t22.5 -9.5t22.5 9.5t9.5 22.5t-9.5 22.5t-22.5 9.5zM288 432h-64q-7 0 -11.5 -4.5t-4.5 -11.5t4.5 -11.5t11.5 -4.5h64q7 0 11.5 4.5t4.5 11.5t-4.5 11.5t-11.5 4.5z" />
    <glyph glyph-name="uniE011" unicode="&#xe011;" 
d="M480 432h-448q-13 0 -22.5 -9.5t-9.5 -22.5v-272q0 -13 9.5 -22.5t22.5 -9.5h208v-48h-80q-7 0 -11.5 -4.5t-4.5 -11.5t4.5 -11.5t11.5 -4.5h192q7 0 11.5 4.5t4.5 11.5t-4.5 11.5t-11.5 4.5h-80v48h208q13 0 22.5 9.5t9.5 22.5v272q0 13 -9.5 22.5t-22.5 9.5zM480 128
h-448v272h448v-272z" />
    <glyph glyph-name="uniE012" unicode="&#xe012;" 
d="M467 447q7 0 11 -2t0.5 -19t-17.5 -31l-106 -106l-10 -10l1 -14q2 -38 8 -130q5 -80 5 -83t-2 -5q-6 -8 -21 -24q-29 79 -49 133l-17 48l-36 -36l-65 -63l-9 -9l-1 -13v-44v-28h1l1 -1q-3 6 -4 7q-32 51 -37 60l-4 6l-7 4q-34 21 -67 42l1 -1h1h23h38h11h12l10 9l62 65
l36 35l-47 18q-55 20 -135 50q17 15 24 21q2 2 4 2h1q3 0 89 -6q95 -6 125 -8l14 -1l11 10l105 105q19 19 40 19zM467 479q-35 0 -63 -28l-105 -105q-24 1 -78.5 4.5t-94.5 6.5t-42 3h-2q-13 0 -24 -10l-37 -33q-9 -9 -8 -20t13 -16q32 -12 152 -56l-63 -65h-10h-33h-28h-4
q-13 0 -31 -15l-1 -1q-7 -7 -8 -16q0 -9 7 -14q12 -10 86 -54q5 -8 27.5 -45t23.5 -38q5 -8 14 -8h1q9 0 18 9q14 16 14 31v34v40l66 62q44 -121 55 -150q5 -12 16 -13h2q10 0 19 8q23 24 32.5 36t9.5 27q0 2 -2.5 42t-6 93.5t-4.5 78.5l105 105q18 17 24.5 38t3.5 36
t-10 22q-11 11 -34 11z" />
    <glyph glyph-name="uniE013" unicode="&#xe013;" 
d="M425 480h-319q-17 0 -25 -10t-8 -23v-64h-18q-6 0 -11 -4.5t-5 -11t5 -11t11 -4.5h18v-64h-16q-7 0 -11.5 -5t-4.5 -11.5t4.5 -11t11.5 -4.5h16v-64h-17q-6 0 -10.5 -5t-4.5 -11.5t4.5 -11t10.5 -4.5h17v-64h-17q-6 0 -10.5 -4.5t-4.5 -11t4.5 -11t10.5 -4.5h17v-65
q0 -18 10 -25t22 -7h320q19 0 33.5 14t14.5 34v416q0 20 -14.5 34t-33.5 14zM105 0v65h16q7 0 11.5 4.5t4.5 11t-4.5 11t-11.5 4.5h-16v64h16q7 0 11.5 4.5t4.5 11t-4.5 11.5t-11.5 5h-16v64h17q6 0 10.5 4.5t4.5 11t-4.5 11.5t-10.5 5h-17v64h15q7 0 11.5 4.5t4.5 11
t-4.5 11t-11.5 4.5h-15v64v1h1h255v-448h-256zM441 16q0 -7 -5 -11.5t-11 -4.5h-32v448h32q6 0 11 -4.5t5 -11.5v-416z" />
    <glyph glyph-name="uniE014" unicode="&#xe014;" 
d="M396 112q-23 0 -44 7.5t-30.5 14t-23.5 17.5q-7 6 -18 16q-19 17 -23 18h-2h-2q-3 -1 -19 -15q-14 -12 -23 -19l-1 -1q-15 -12 -25 -18.5t-30 -13t-42 -6.5q-57 0 -91 42q-31 38 -19 92q1 9 9.5 12t15.5 -2q12 -9 30 -9q14 0 28 6q8 4 14.5 10.5t15 17.5t11.5 14
q12 13 19 20t20.5 14t28.5 7q33 0 60 -24q26 24 59 24q15 0 29 -7t21.5 -14t18.5 -20q4 -3 12.5 -14t15 -17.5t14.5 -10.5q14 -6 28 -6q20 0 32 9q7 5 15 2t10 -12q10 -54 -21 -92q-16 -20 -41 -31t-52 -11zM255 217h3h2h2q11 -2 38 -26q11 -9 18 -15q12 -10 20 -15.5
t24 -11t34 -5.5q44 0 69 30q15 19 16 45q-13 -4 -28 -4q-20 0 -41 9q-10 4 -19 12t-20 22t-13 16q-15 16 -24.5 23t-21.5 7q-26 0 -47 -25q-5 -6 -12 -6t-12 6q-22 25 -47 25q-12 0 -21.5 -7t-24.5 -23q-1 -2 -12.5 -16t-20 -21.5t-18.5 -12.5q-21 -9 -41 -9q-14 0 -27 4
q0 -26 16 -45q24 -30 66 -30q17 0 32.5 5t23.5 10.5t21 15.5l2 1q8 6 21 18q24 20 34 22v0q5 1 8 1z" />
    <glyph glyph-name="uniE015" unicode="&#xe015;" 
d="M256.5 480q-59.5 0 -102 -42t-42.5 -101v-226q0 -59 42.5 -101t102 -42t101.5 42t42 101v226q0 59 -42 101t-101.5 42zM368 111q0 -46 -32.5 -78.5t-78.5 -32.5t-79.5 32.5t-33.5 78.5v226q0 46 33.5 78.5t79.5 32.5t78.5 -32.5t32.5 -78.5v-226zM256.5 384
q-6.5 0 -11.5 -4.5t-5 -11.5v-80q0 -7 5 -11.5t11.5 -4.5t11 4.5t4.5 11.5v80q0 7 -4.5 11.5t-11 4.5z" />
    <glyph glyph-name="uniE016" unicode="&#xe016;" 
d="M480 450v14q0 7 -4.5 11.5t-11.5 4.5h-112q-7 0 -11.5 -4.5t-4.5 -11.5v-65v-199q0 -37 -20.5 -62t-54.5 -25q-36 0 -60.5 25.5t-24.5 61.5v250v14q0 7 -4.5 11.5t-11.5 4.5h-112q-7 0 -11.5 -4.5t-4.5 -11.5v-65v-1v-205q0 -94 65.5 -159.5t158.5 -65.5t158.5 65.5
t65.5 159.5v257zM448 448v-64h-80v64h80zM144 448v-64h-80v64h80zM256 0q-80 0 -136 56.5t-56 136.5v159h80v-152q0 -49 33.5 -84t83.5 -35q48 0 77.5 34t29.5 85v152h80v-159q0 -80 -56 -136.5t-136 -56.5z" />
    <glyph glyph-name="uniE017" unicode="&#xe017;" 
d="M510 265l-51 77l25 90q3 9 -3.5 15.5t-15.5 3.5l-90 -26l-77 52q-8 6 -16 1.5t-9 -14.5l-3 -93l-73 -57q-7 -6 -5.5 -15t10.5 -13l68 -24l-1 -1l-265 -266q-5 -4 -5 -11t4.5 -11.5t11.5 -4.5t11 5l266 265q1 1 2 4l27 -74q3 -9 13 -11h2q8 0 13 6l57 74l92 3q9 1 13.5 9
t-1.5 16zM397 269q-7 -1 -12 -6l-44 -57l-24 67q-3 7 -10 10l-67 24l56 44q6 4 6 12l2 71l60 -39q6 -5 13 -3l69 20l-20 -68q-2 -7 2 -14l40 -59z" />
    <glyph glyph-name="uniE018" unicode="&#xe018;" 
d="M417 448h-33v-108q0 -77 -89 -123q47 -23 68.5 -54t21.5 -75v-88h32q6 0 11 -4.5t5 -11t-5 -11.5t-11 -5h-322q-6 0 -11 5t-5 11.5t5 11t11 4.5h33v88l21 75l68 54q-88 46 -88 123v108h-34q-6 0 -11 4.5t-5 11t5 11.5t11 5h322q6 0 11 -5t5 -11.5t-5 -11t-11 -4.5z
M160 88v-88h193v88q0 36 -20 62.5t-77 49.5q-56 -23 -76 -49t-20 -63zM352 448h-191v-108q0 -29 19 -55.5t76 -49.5q58 23 77 49.5t19 55.5v108z" />
    <glyph glyph-name="uniE019" unicode="&#xe019;" 
d="M495 132v129l8 4q9 5 9 14.5t-8 13.5l-241 129q-8 4 -15 0l-240 -129q-8 -4 -8 -13.5t8 -14.5l106 -56q-3 -4 -3 -8v-135q0 -7 6 -12q5 -4 14.5 -9.5t44 -13t79.5 -7.5t80 7t44.5 12t14.5 9q6 5 6 13v139q0 3 -1 6l64 34v-112q-15 -10 -15 -28q0 -13 9 -22.5t22.5 -9.5
t23 9.5t9.5 22.5q0 19 -17 28zM368 74q-37 -18 -112.5 -18t-112.5 19v118l104 -55q4 -2 8 -2t7 2l106 56v-120zM255 170l-206 109l206 111l207 -110z" />
    <glyph glyph-name="uniE01A" unicode="&#xe01a;" 
d="M256 480q-86 0 -147 -65.5t-61 -157.5v-273q0 -11 10 -15q3 -1 6 -1q7 0 12 5l60 67l48 -65q4 -7 12.5 -7t12.5 6l48 64l46 -64q5 -6 13 -6t13 6l48 66l59 -67q7 -8 17.5 -4t10.5 15v273q0 92 -61 157.5t-147 65.5zM432 26l-44 50q-6 6 -13.5 5.5t-11.5 -6.5l-47 -64
l-46 63q-5 7 -13 7t-13 -6l-47 -64l-46 64q-5 6 -12 6h-1q-7 0 -12 -5l-46 -51v232q0 79 51.5 135t124.5 56t124.5 -56t51.5 -135v-231zM336 304q-13 0 -22.5 -9.5t-9.5 -22.5t9.5 -22.5t22.5 -9.5t22.5 9.5t9.5 22.5t-9.5 22.5t-22.5 9.5zM176 304q-13 0 -22.5 -9.5
t-9.5 -22.5t9.5 -22.5t22.5 -9.5t22.5 9.5t9.5 22.5t-9.5 22.5t-22.5 9.5z" />
    <glyph glyph-name="uniE01B" unicode="&#xe01b;" 
d="M372 442q-26 12 -36 17q-42 21 -79 21q-54 0 -104 -49l-18 -18l-12 -12l-17 -17l-27 -27l-29 -30q-42 -41 -49 -85t20 -98q6 -11 17 -36q13 -27 20 -41.5t20.5 -37t24 -33.5t25.5 -19.5t31 -8.5h4q14 1 25 7t19.5 18t14.5 22.5t12 30t8 30.5l8 33q5 21 6 29q5 17 32 45
l3 3l2 1l2 2l2 3q28 27 45 32q9 2 29 6q22 5 33 8t30.5 8.5t30 11.5t22.5 14.5t18 19.5t7 25q1 17 -7 32.5t-19 26.5t-33.5 24.5t-37.5 21t-43 20.5zM479 320q-1 -12 -10 -21t-28 -16t-33 -11t-40 -9.5t-34 -7.5q-26 -7 -60 -40q0 -1 -2 -2.5t-2 -2.5q-1 0 -2 -2l-3 -2
q-33 -34 -40 -60q-2 -8 -7.5 -34t-9.5 -40t-11 -33t-16 -28t-21 -10h-2q-12 0 -24 9t-24 29t-20.5 36t-21.5 44.5t-19 39.5q-22 50 -16 82t39 64q3 4 29 30l44 44l15 15l15 15q40 40 82 40q29 0 64 -18q11 -5 40 -18.5t45 -22t36 -21t29 -25t8 -24.5zM239 304h32v32h-32v-32
zM239 352h32v32h-32v-32zM287 352h32v32h-32v-32zM287 304h32v32h-32v-32zM165 208l12 12q11 11 0 22t-22 0l-12 -12l-12 12q-11 11 -22 0t0 -22l12 -12l-12 -12q-11 -11 0 -21.5t22 -0.5l12 13l13 -13q11 -11 21.5 0t-0.5 22z" />
    <glyph glyph-name="uniE01C" unicode="&#xe01c;" 
d="M254 -32q-90 0 -148 56.5t-58 142.5q0 28 10 61.5t17 47t11 21.5q5 9 16 8t14 -12q9 -36 23 -58q13 -20 27 -30q-14 62 -3 119q6 35 21.5 63.5t31 44.5t34 27.5t26 15t12.5 4.5q9 2 15.5 -4t4.5 -14q-2 -11 -3.5 -27.5t2.5 -59t19 -75.5q4 -10 12 -23q2 18 7 33
q5 20 17.5 35t18.5 19t10 6q9 4 16.5 -2t6.5 -15q-5 -31 20 -74q18 -29 24 -52t6 -59q0 -86 -59.5 -142.5t-150.5 -56.5zM98 246q-18 -45 -18 -79q0 -72 49 -119.5t125 -47.5q77 0 127.5 47.5t50.5 119.5q0 32 -5 51t-20 44q-17 28 -23 58q-5 -9 -8 -19q-11 -36 -8 -75
q1 -12 -10.5 -16t-18.5 6q-30 42 -42 69q-30 64 -23 152q-64 -37 -80 -119q-7 -29 -2 -65.5t8.5 -50.5t6.5 -21q3 -9 -3.5 -16t-15.5 -5l-15 5l-29 18l-32 35q-7 11 -14 28z" />
    <glyph glyph-name="uniE01D" unicode="&#xe01d;" 
d="M513 154q0 1 -31 184q0 2 -1 8q-2 13 -4.5 21.5t-10 21.5t-25 20t-43.5 7q-6 0 -11 -4.5t-5 -11.5t5 -11.5t11 -4.5q17 0 27 -3t15 -10t6.5 -12.5t2.5 -16.5q1 -6 2 -9q0 -1 6.5 -37.5t10.5 -63.5q-30 23 -67 23q-30 0 -56 -14.5t-41 -39.5q-22 8 -48 8t-47 -9
q-15 25 -40.5 40t-55.5 15q-40 0 -71 -25q4 27 11 64.5t7 38.5q0 3 1 9q2 11 3.5 16.5t6 12.5t15 10t26.5 3q7 0 11.5 4.5t4.5 11.5t-4.5 11.5t-11.5 4.5q-26 0 -43 -7t-25 -20t-10.5 -21.5t-4.5 -21.5q0 -6 -1 -8q-28 -167 -29 -183q0 -2 1 -4q-1 -6 -1 -7q0 -46 33.5 -79
t80 -33t79 32.5t32.5 79.5q0 13 -3 27q15 6 35 6q19 0 35 -6q-4 -14 -4 -27q0 -46 33.5 -79t80 -33t79 32.5t32.5 79.5v2v3q1 3 1 5zM113 64q-33 0 -57.5 23.5t-24.5 56t24.5 56t57.5 23.5t56 -23t23 -56t-23 -56.5t-56 -23.5zM401 64q-33 0 -57.5 23.5t-24.5 56t24.5 56
t57.5 23.5q28 0 49.5 -17.5t27.5 -44.5q1 -5 1 -9q0 -2 1 -4v-4q0 -33 -23 -56.5t-56 -23.5z" />
    <glyph glyph-name="uniE01E" unicode="&#xe01e;" 
d="M512 243q-1 9 -6 16h-1q-2 3 -5 6l-209 201q-14 14 -34 14t-34 -14l-209 -200q-14 -13 -14 -26v-240q0 -13 9.5 -22.5t22.5 -9.5h448q13 0 22.5 9.5t9.5 22.5v239v4zM135 117l-103 -95v186zM168 104q2 1 3 2v1l71 65q6 4 12 4q8 0 13 -4l192 -172h-404zM379 115l101 90
v-181zM52 259l194 185q4 5 11 5t11 -5l181 -172h-1l28 -28l-121 -108l-68 61q-14 11 -32.5 11t-33.5 -12l-62 -57l-121 106l13 14h1z" />
    <glyph glyph-name="uniE01F" unicode="&#xe01f;" 
d="M512 243q-1 9 -6 16h-1q-2 3 -5 6l-84 84v52q0 6 -4.5 11t-11.5 5h-51l-58 49q-14 14 -34 14t-34 -14l-58 -49h-53q-7 0 -11.5 -5t-4.5 -11v-53l-82 -82q-14 -9 -14 -26v-240q0 -13 9.5 -22.5t22.5 -9.5h448q13 0 22.5 9.5t9.5 22.5v239v4zM134 117l-102 -95v186z
M165 102q4 2 6 4q1 2 2 3l69 64q6 5 12 5q8 0 13 -4l192 -174h-404zM379 115l101 90v-181zM449 272h-1l28 -28l-60 -53v114zM246 444q4 5 11 5t11 -5l33 -27h-88zM384 385v-223l-29 -25l-68 62q-14 11 -32.5 11t-33.5 -12l-63 -59l-30 27v219h256zM52 259l44 44v-109l-58 51
l13 14h1z" />
    <glyph glyph-name="uniE020" unicode="&#xe020;" 
d="M298 448zM298 448l-36 -190h130l-178 -258l36 209l-130 1zM298 480h-3q-7 -1 -14 -6q-3 -2 -6 -6l-2 -2l-179 -237q-12 -16 -3 -33.5t28 -17.5l93 -1l-29 -171q-2 -11 3 -21t16 -14q6 -3 12 -3q15 0 25 14l179 257q12 16 3 33t-28 18h-93l29 150q1 4 1 8q0 13 -9 22
t-22 10h-1z" />
    <glyph glyph-name="uniE021" unicode="&#xe021;" 
d="M391 176.5q-6 2.5 -12.5 0t-8.5 -8.5q-2 -3 -4.5 -8t-13 -17.5t-22.5 -22t-32 -17t-43 -8.5h-1h-1q-21 0 -40.5 7.5t-31 17t-21.5 22t-13 18t-5 8.5q-3 6 -9 8.5t-12 0t-8.5 -9t0.5 -12.5l5 -11l16 -22l28 -28l40 -22l51 -9h1h1q29 1 54 10.5t40 21.5t27.5 27t16.5 22
t6 11q2 6 0 12.5t-8 9zM256 480q-106 0 -181 -75t-75 -181t75 -181t181 -75t181 75t75 181t-75 181t-181 75zM256 0q-93 0 -158.5 65.5t-65.5 158.5t65.5 158.5t158.5 65.5t158.5 -65.5t65.5 -158.5t-65.5 -158.5t-158.5 -65.5zM176 240q13 0 22.5 9.5t9.5 22.5t-9.5 22.5
t-22.5 9.5t-22.5 -9.5t-9.5 -22.5t9.5 -22.5t22.5 -9.5zM336 240q13 0 22.5 9.5t9.5 22.5t-9.5 22.5t-22.5 9.5t-22.5 -9.5t-9.5 -22.5t9.5 -22.5t22.5 -9.5z" />
    <glyph glyph-name="uniE022" unicode="&#xe022;" 
d="M256 480q-106 0 -181 -75t-75 -181t75 -181t181 -75t181 75t75 181t-75 181t-181 75zM480 224q0 -49 -20 -93l-142 76q3 8 3 17q0 27 -19 46t-46 19q-11 0 -21 -4l-85 136q50 27 106 27q93 0 158.5 -65.5t65.5 -158.5zM256 256q13 0 23 -9.5t10 -22.5t-10 -23t-23 -10
t-22.5 10t-9.5 23t9.5 22.5t22.5 9.5zM123 404l85 -137l-1 -1l-141 76q23 37 57 62zM32 224q0 47 19 90l142 -76q-2 -7 -2 -14q0 -27 19 -46t46 -19q9 0 18 3l85 -137q-48 -25 -103 -25q-93 0 -158.5 65.5t-65.5 158.5zM386 42l-85 136q1 0 1 1l142 -76q-23 -36 -58 -61z
" />
    <glyph glyph-name="uniE023" unicode="&#xe023;" 
d="M508 232l-4 4l-65 59q-9 8 -17 0l-3 -4q-8 -7 2 -16l38 -35h-186v187l35 -38q9 -10 16 -2l4 3q8 8 0 17l-56 62q-3 4 -7 6v1q-4 4 -8.5 4t-8.5 -4l-4 -4l-58 -64q-8 -9 0 -17l4 -3q8 -8 17 2l34 38v-188h-188l38 35q10 9 2 16l-3 4q-8 8 -17 0l-62 -56q-4 -3 -6 -7h-1
q-4 -4 -4 -8.5t4 -8.5l4 -4l64 -58q9 -8 17 0l3 4q8 8 -2 17l-38 34h189v-188l-34 38q-9 10 -17 2l-4 -3q-8 -8 0 -17l58 -64l4 -4q4 -4 8.5 -4t8.5 4l4 4l59 65q8 9 0 17l-4 3q-7 8 -16 -2l-35 -38v187h187l-38 -34q-10 -9 -2 -17l3 -4q8 -8 17 0l64 58l4 4q4 4 4 8.5
t-4 8.5z" />
    <glyph glyph-name="uniE024" unicode="&#xe024;" 
d="M496 80h-64v297l60 60q11 11 -0.5 22.5t-22.5 -0.5l-59 -59h-298v64q0 7 -4.5 11.5t-11.5 4.5t-11.5 -4.5t-4.5 -11.5v-64h-64q-7 0 -11.5 -4.5t-4.5 -11.5t4.5 -11.5t11.5 -4.5h64v-304q0 -1 1 -4v-1v-1q3 -6 9 -9h1h1q3 -1 4 -1h304v-64q0 -7 4.5 -11.5t11.5 -4.5
t11.5 4.5t4.5 11.5v64h64q7 0 11.5 4.5t4.5 11.5t-4.5 11.5t-11.5 4.5zM378 368l-266 -265v265h266zM135 80l265 265v-265h-265z" />
    <glyph glyph-name="uniE025" unicode="&#xe025;" 
d="M464 392h-416q-20 0 -34 -14t-14 -34v-240q0 -20 14 -34t34 -14h416q20 0 34 14t14 34v240q0 20 -14 34t-34 14zM48 360h416q7 0 11.5 -4.5t4.5 -11.5v-32h-448v32q0 7 4.5 11.5t11.5 4.5zM464 88h-416q-7 0 -11.5 4.5t-4.5 11.5v144h448v-144q0 -7 -4.5 -11.5
t-11.5 -4.5z" />
    <glyph glyph-name="uniE026" unicode="&#xe026;" 
d="M405 -5l-85 100v177h11q6 0 11 5t5 11.5t-5 11t-11 4.5h-27q-7 0 -11.5 -4.5t-4.5 -11.5v-199q0 -6 4 -10l65 -79h-202l65 79q4 4 4 10v199q0 7 -4.5 11.5t-11.5 4.5h-27q-6 0 -11 -4.5t-5 -11t5 -11.5t11 -5h11v-177l-85 -100q-7 -8 -3 -17.5t15 -9.5h274q11 0 15 9.5
t-3 17.5zM240 320q13 0 22.5 9.5t9.5 22.5t-9.5 22.5t-22.5 9.5t-22.5 -9.5t-9.5 -22.5t9.5 -22.5t22.5 -9.5zM344.5 368q23.5 0 40 16.5t16.5 39.5t-16.5 39.5t-40 16.5t-40 -16.5t-16.5 -39.5t16.5 -39.5t40 -16.5zM344 448q10 0 17 -7t7 -17t-7 -17t-17 -7t-17 7t-7 17
t7 17t17 7z" />
    <glyph glyph-name="uniE027" unicode="&#xe027;" 
d="M453 124q-44 54 -44 88v104q0 68 -45 115.5t-109 47.5t-108.5 -47.5t-44.5 -115.5v-104q0 -9 -2.5 -18.5t-8.5 -20t-9.5 -16t-13.5 -18t-11 -14.5l-9 -12l-7 -11l-5 -12l-1 -10l2 -9q9 -17 42 -17h91q0 -35 25 -60t60.5 -25t60.5 25t25 60h94q32 0 40 16q2 5 2 10.5
t-1 9.5t-5.5 11t-7.5 11t-10 12zM255.5 2q-21.5 0 -36.5 15t-15 37h103q0 -22 -15 -37t-36.5 -15zM435 88h-356h-7q4 5 12 17q1 1 10.5 13.5t12.5 16.5t10.5 16t10.5 20t5.5 19t2.5 22v104q0 54 34.5 91.5t84.5 37.5t85 -37.5t35 -91.5v-104q0 -46 51 -110q9 -9 12 -14h-3z
" />
    <glyph glyph-name="uniE028" unicode="&#xe028;" 
d="M511 60l-94 173q15 34 15 71q0 73 -51.5 124.5t-124.5 51.5t-124.5 -51.5t-51.5 -124.5q0 -38 16 -72l-94 -172q-5 -9 1 -17.5t16 -5.5l80 18l28 -76q3 -10 14 -11h1q10 0 14 9l82 152q9 -1 18 -1q8 0 16 1l84 -153q5 -8 14 -8h1q11 1 14 11l28 76l80 -18q10 -3 16 5.5
t2 17.5zM145 23l-20 56q-5 14 -19 11l-59 -14l67 123q35 -47 91 -63zM112 304q0 59 42 101.5t101.5 42.5t102 -42.5t42.5 -101.5t-42.5 -101.5t-102 -42.5t-101.5 42.5t-42 101.5zM406 90q-14 3 -19 -11l-20 -56l-62 112q58 17 93 66l68 -125z" />
    <glyph glyph-name="uniE029" unicode="&#xe029;" 
d="M511 114l-42 76l-3 5q-2 5 -6.5 6t-8.5 -2l-5 -3h-1l-72 -49q-10 -7 -4 -17l3 -3q5 -10 16 -3l43 30q-7 -62 -52 -105.5t-107 -48.5v321h64q7 0 11.5 4.5t4.5 11t-4.5 11.5t-11.5 5h-65v1q22 5 36 22.5t14 40.5q0 26 -19 45t-45.5 19t-45.5 -19t-19 -45q0 -23 14 -40.5
t35 -22.5v-1h-65q-7 0 -11.5 -5t-4.5 -11.5t4.5 -11t11.5 -4.5h64v-321q-62 5 -107 48.5t-52 105.5l43 -30q11 -7 16 3l3 3q6 10 -4 17l-72 49h-1l-5 3q-4 3 -8.5 2t-6.5 -6l-3 -5l-42 -76q-5 -10 4 -16l5 -2q9 -6 15 5l24 45q11 -77 70 -128t137 -51t137 51t70 128l24 -45
q6 -11 15 -5l5 2q9 6 4 16zM224 416.5q0 13.5 9.5 23t23 9.5t23 -9.5t9.5 -23t-9.5 -23t-23 -9.5t-23 9.5t-9.5 23z" />
    <glyph glyph-name="uniE02A" unicode="&#xe02a;" 
d="M512 335q1 38 -39 49l-358 72h-3q-20 0 -34 -14t-14 -34v-64h-16q-20 0 -34 -14t-14 -34v-256q0 -20 14 -34t34 -14h416q20 0 34 14t14 34v295zM96 408q0 6 4 11t10 5l353 -71q1 -1 -0.5 -3t-5 -4t-9.5 -2h-352v64zM480 40q0 -7 -4.5 -11.5t-11.5 -4.5h-416
q-7 0 -11.5 4.5t-4.5 11.5v256q0 6 4.5 11t11.5 5h400q13 0 22.5 4t9.5 12v-288zM96 200q-13 0 -22.5 -9.5t-9.5 -23t9.5 -22.5t22.5 -9t22.5 9t9.5 22.5t-9.5 23t-22.5 9.5z" />
    <glyph glyph-name="uniE02B" unicode="&#xe02b;" 
d="M496 144h-16v1q0 59 -29.5 110t-78.5 81h80q10 -16 28 -16q13 0 22.5 9.5t9.5 22.5t-9.5 22.5t-22.5 9.5q-18 0 -28 -16h-148v16q0 7 -4.5 11.5t-11.5 4.5h-64q-7 0 -11.5 -4.5t-4.5 -11.5v-16h-148q-10 16 -28 16q-13 0 -22.5 -9.5t-9.5 -22.5t9.5 -22.5t22.5 -9.5
q18 0 28 16h80q-49 -30 -78.5 -81t-29.5 -110v-1h-16q-7 0 -11.5 -4.5t-4.5 -11.5v-64q0 -7 4.5 -11.5t11.5 -4.5h64q7 0 11.5 4.5t4.5 11.5v64q0 7 -4.5 11.5t-11.5 4.5h-16v1q0 66 40.5 117.5t103.5 68.5v-11q0 -7 4.5 -11.5t11.5 -4.5h64q7 0 11.5 4.5t4.5 11.5v11
q63 -17 103.5 -68.5t40.5 -117.5v-1h-16q-7 0 -11.5 -4.5t-4.5 -11.5v-64q0 -7 4.5 -11.5t11.5 -4.5h64q7 0 11.5 4.5t4.5 11.5v64q0 7 -4.5 11.5t-11.5 4.5zM64 80h-32v32h32v-32zM272 336h-32v32h32v-32zM480 80h-32v32h32v-32z" />
    <glyph glyph-name="uniE02C" unicode="&#xe02c;" 
d="M480 448h-448q-13 0 -22.5 -9.5t-9.5 -22.5v-289q0 -13 9.5 -22.5t22.5 -9.5h64v-79q0 -11 10 -15q3 -1 6 -1q6 0 11 4l92 91h265q13 0 22.5 9.5t9.5 22.5v289q0 13 -9.5 22.5t-22.5 9.5zM480 127h-278l-74 -73v73h-96v289h448v-289zM112 255h288q7 0 11.5 5t4.5 11.5
t-4.5 11t-11.5 4.5h-288q-7 0 -11.5 -4.5t-4.5 -11t4.5 -11.5t11.5 -5zM112 319h288q7 0 11.5 5t4.5 11.5t-4.5 11t-11.5 4.5h-288q-7 0 -11.5 -4.5t-4.5 -11t4.5 -11.5t11.5 -5zM112 191h192q7 0 11.5 5t4.5 11.5t-4.5 11t-11.5 4.5h-192q-7 0 -11.5 -4.5t-4.5 -11
t4.5 -11.5t11.5 -5z" />
    <glyph glyph-name="uniE02D" unicode="&#xe02d;" 
d="M256 -32q-16 0 -27 11l-218 218q-11 11 -11 27t11 27l80 80q8 8 18.5 2.5t8.5 -16.5q-1 -7 -1 -12q0 -26 18.5 -45t44.5 -19t43.5 19t17.5 45.5t-17.5 45t-43.5 18.5q-5 0 -11 -1q-12 -2 -17.5 8t3.5 19l74 74q11 11 27 11t27 -11l54 -54q9 27 32 44t52 17q37 0 62.5 -26
t25.5 -62q0 -29 -17 -52t-44 -32l53 -53q11 -11 11 -27t-11 -27l-218 -218q-11 -11 -27 -11zM87 282l-54 -54q-4 -4 1 -8l218 -218q4 -5 8 0l218 218q5 4 0 8l-76 77q-9 8 -4 18.5t17 9.5l2 -1h4q23 0 39.5 16.5t16.5 39.5t-16.5 39.5t-39.5 16.5t-39.5 -16.5t-16.5 -39.5
q0 -1 1 -4v-3q1 -11 -9 -16t-18 3l-79 79q-4 4 -8 0l-49 -49q31 -8 50.5 -33.5t19.5 -59.5q0 -40 -27 -68t-66 -28q-33 0 -59 21t-34 52z" />
    <glyph glyph-name="uniE02E" unicode="&#xe02e;" 
d="M476 353h-60v127h-320v-127h-60q-15 0 -25.5 -10.5t-10.5 -25.5v-217q0 -15 10.5 -25.5t25.5 -10.5h60v-96h320v96h60q15 0 25.5 10.5t10.5 25.5v217q0 15 -10.5 25.5t-25.5 10.5zM128 448h256v-95h-256v95zM384 0h-256v176h256v-176zM480 100q0 -4 -4 -4h-60v112h-320
v-112h-60q-4 0 -4 4v217q0 4 4 4h440q4 0 4 -4v-217zM416 288h-16q-7 0 -11.5 -4.5t-4.5 -11t4.5 -11.5t11.5 -5h16q7 0 11.5 5t4.5 11.5t-4.5 11t-11.5 4.5z" />
    <glyph glyph-name="uniE02F" unicode="&#xe02f;" 
d="M512 320q0 13 -9.5 22.5t-22.5 9.5h-55q24 23 24 54q0 24 -15 41t-46 17q-67 0 -131 -97q-24 37 -59 67t-74 30q-31 0 -45.5 -17t-14.5 -41q0 -31 24 -54h-56q-13 0 -22.5 -9.5t-9.5 -22.5v-96h32v-208q0 -14 9.5 -23t22.5 -9h384q13 0 22.5 9t9.5 23v208h32v96zM388 432
q29 0 29 -26q0 -25 -23.5 -39.5t-53.5 -14.5h-55q55 80 103 80zM124 432q27 0 55 -24.5t50 -55.5h-55q-30 0 -54 15t-24 40t28 25zM480 256h-208v64h208v-64zM32 320h208v-64h-208v64zM64 224h176v-208h-176v208zM448 16h-176v208h176v-208z" />
    <glyph glyph-name="uniE030" unicode="&#xe030;" 
d="M17 448h224q7 0 11.5 4.5t4.5 11.5t-4.5 11.5t-11.5 4.5h-224q-7 0 -11.5 -4.5t-4.5 -11.5t4.5 -11.5t11.5 -4.5zM17 352h224q7 0 11.5 4.5t4.5 11.5t-4.5 11.5t-11.5 4.5h-224q-7 0 -11.5 -4.5t-4.5 -11.5t4.5 -11.5t11.5 -4.5zM257 272q0 7 -4.5 11.5t-11.5 4.5h-224
q-7 0 -11.5 -4.5t-4.5 -11.5t4.5 -11.5t11.5 -4.5h224q7 0 11.5 4.5t4.5 11.5zM506 318l-156 156q-8 8 -18 3q-11 -4 -11 -15v-354q-27 20 -64 20q-40 0 -68 -23.5t-28 -56.5t28 -56.5t68 -23.5t68 23.5t28 56.5v6v372l131 -131q11 -11 22.5 0t-0.5 23zM321 46
q-1 -17 -19.5 -31.5t-44.5 -14.5q-27 0 -45.5 15t-18.5 33t18.5 33t45.5 15q26 0 44.5 -14.5t19.5 -31.5v-4z" />
    <glyph glyph-name="uniE031" unicode="&#xe031;" 
d="M507 290l-184 185q-6 7 -15 4.5t-11 -10.5q-17 -54 -4 -98l-2 -2l-86 -85q-42 20 -87 20q-28 0 -55 -9q-8 -2 -10.5 -11t4.5 -15l109 -110l-153 -156l-13 -35l32 13l157 155l111 -112q4 -4 11 -4h4q9 2 11 11q22 71 -10 142l88 87v1q21 -6 41 -6q29 0 56 9q8 2 10.5 11
t-4.5 15zM302 68l-202 203q39 4 78.5 -10.5t69.5 -45.5q30 -29 44 -68.5t10 -78.5zM300 202q-13 20 -29.5 36.5t-36.5 29.5l72 72q11 -19 29 -37q17 -18 37 -29zM357 326q-45 45 -36 106l143 -144q-60 -9 -107 38z" />
    <glyph glyph-name="uniE032" unicode="&#xe032;" 
d="M480 440h-448q-13 0 -22.5 -9.5t-9.5 -22.5v-368q0 -13 9.5 -22.5t22.5 -9.5h448q13 0 22.5 9.5t9.5 22.5v368q0 13 -9.5 22.5t-22.5 9.5zM480 40h-448v94l128 125l133 -133q9 -10 22 0l58 53l106 -108q0 -1 1 -1v-30zM480 115l-94 96q-10 10 -21 2l-60 -53l-133 131
q-4 6 -11 6t-12 -4l-117 -114v229h448v-293zM368 280q13 0 22.5 9.5t9.5 22.5t-9.5 22.5t-22.5 9.5t-22.5 -9.5t-9.5 -22.5t9.5 -22.5t22.5 -9.5z" />
    <glyph glyph-name="uniE033" unicode="&#xe033;" 
d="M497 412l-161 67l-160 -63l-161 63q-1 1 -4 1q-11 0 -11 -13v-415q0 -6 4.5 -12t10.5 -8l162 -64l159 65l161 -63h4q11 0 11 12v410q0 7 -4.5 13t-10.5 7zM192 389l128 51v-381l-128 -51v381zM32 437l128 -48v-381l-128 53v376zM480 11l-128 48v380l128 -55v-373z" />
    <glyph glyph-name="uniE034" unicode="&#xe034;" 
d="M11 329l237 -129q4 -2 8 -2t8 2l240 129q8 5 8 14.5t-9 13.5l-237 121q-7 4 -15 0l-240 -121q-8 -4 -8.5 -13.5t8.5 -14.5zM259 446l203 -103l-206 -111l-203 111zM501 240l-48 24l-34 -19l40 -20l-206 -111l-203 111l43 21l-34 19l-50 -25q-9 -4 -9 -14t8 -14l238 -130
q3 -2 7 -2t8 2l240 130q9 4 8.5 13.5t-8.5 14.5zM501 128l-45 22l-35 -19l38 -18l-206 -111l-203 111l40 18l-34 19l-47 -22q-9 -4 -9 -14t8 -14l238 -130q3 -2 7 -2t8 2l240 129q9 5 8.5 14.5t-8.5 14.5z" />
    <glyph glyph-name="uniE035" unicode="&#xe035;" 
d="M511 9l-41 252q-3 24 -22.5 41.5t-44.5 17.5h-35v42q0 50 -31.5 84t-80 34t-80.5 -34t-32 -84v-42h-38q-25 0 -44.5 -17.5t-22.5 -41.5l-38 -252q-2 -20 7 -31q10 -10 27 -10h437q20 0 31 12q10 11 8 29zM176 362q0 37 22.5 61.5t57.5 24.5t57.5 -24.5t22.5 -61.5v-42
h-160v42zM474 0h-437q-5 0 -5 5l39 252q2 12 12 21.5t23 9.5h38v-37q-16 -9 -16 -27q0 -14 9.5 -23t22.5 -9t22.5 9t9.5 23q0 18 -16 27v37h160v-37q-16 -9 -16 -27q0 -14 9.5 -23t22.5 -9t22.5 9t9.5 23q0 18 -16 27v37h35q13 0 23 -9.5t12 -22.5l42 -252q0 -4 -6 -4z" />
    <glyph glyph-name="uniE036" unicode="&#xe036;" 
d="M465 273q0 63 -31.5 117.5t-87.5 87.5q-6 3 -12.5 1.5t-9.5 -7.5t-1.5 -12.5t7.5 -9.5q48 -29 75.5 -76t27.5 -101q0 -91 -59.5 -150t-149.5 -59q-41 0 -79 15q-6 2 -12 -0.5t-8.5 -8.5t0 -12t8.5 -9q44 -17 91 -17v-32h-47q-7 0 -11.5 -4.5t-4.5 -11t4.5 -11.5t11.5 -5
h127q7 0 12 5t5 11.5t-5 11t-12 4.5h-48v34q92 10 150.5 76.5t58.5 162.5zM400 271q0 73 -52 125t-124.5 52t-124.5 -52t-52 -125t51.5 -124t125 -51t125 51t51.5 124zM79 271.5q0 59.5 42.5 102t102 42.5t102 -42.5t42.5 -102t-42.5 -101.5t-102 -42t-102 42t-42.5 101.5z
" />
    <glyph glyph-name="uniE037" unicode="&#xe037;" 
d="M513 224q0 102 -70.5 176t-171.5 80h-8h-1h-2h-2h-2q-106 0 -181.5 -75t-75.5 -181t75.5 -181t181.5 -75h2h3h1h1h8q101 6 171.5 80t70.5 176zM465 142q-26 7 -70 12q5 34 5 70q0 28 -3 56q50 6 72 13l-6 17q18 -41 18 -86q0 -43 -16 -82zM143 224q0 26 3 52q44 -3 94 -4
v-111q-49 0 -92 -3q-5 32 -5 66zM271 446q30 -9 53.5 -46.5t34.5 -91.5q-40 -3 -88 -4v142zM240 445v-141q-47 1 -89 4q12 54 36 91t53 46zM240 129v-126q-27 8 -50 41t-35 82q39 3 85 3zM271 2v127q46 0 85 -3q-12 -49 -34.5 -82.5t-50.5 -41.5zM271 161v111q51 1 94 4
q3 -26 3 -52q0 -34 -5 -67q-42 4 -92 4zM457 323q-22 -7 -65 -12q-14 73 -47 119q76 -33 112 -107zM179 435q-41 -48 -59 -124q-41 4 -66 10q40 83 125 114zM42 291q26 -7 73 -12q-4 -27 -4 -55q0 -35 6 -69q-43 -5 -70 -12q-16 39 -16 81q0 35 11 67zM61 114q26 5 63 9
q18 -67 55 -110q-77 29 -118 101zM345 18q30 41 44 105q37 -4 62 -11q-38 -64 -106 -94z" />
    <glyph glyph-name="uniE038" unicode="&#xe038;" 
d="M112 424h-96q-7 0 -11.5 -4.5t-4.5 -11.5v-96q0 -7 4.5 -11.5t11.5 -4.5t11.5 4.5t4.5 11.5v80h80q7 0 11.5 4.5t4.5 11.5t-4.5 11.5t-11.5 4.5zM496 152q-7 0 -11.5 -4.5t-4.5 -11.5v-80h-80q-7 0 -11.5 -4.5t-4.5 -11.5t4.5 -11.5t11.5 -4.5h96q7 0 11.5 4.5t4.5 11.5
v96q0 7 -4.5 11.5t-11.5 4.5zM112 56h-80v80q0 7 -4.5 11.5t-11.5 4.5t-11.5 -4.5t-4.5 -11.5v-96q0 -7 4.5 -11.5t11.5 -4.5h96q7 0 11.5 4.5t4.5 11.5t-4.5 11.5t-11.5 4.5zM496 424h-96q-7 0 -11.5 -4.5t-4.5 -11.5t4.5 -11.5t11.5 -4.5h80v-80q0 -7 4.5 -11.5t11.5 -4.5
t11.5 4.5t4.5 11.5v96q0 7 -4.5 11.5t-11.5 4.5z" />
    <glyph glyph-name="uniE039" unicode="&#xe039;" 
d="M480 376h-240l-48 48h-160q-13 0 -22.5 -9.5t-9.5 -22.5v-80v-32v-224q0 -13 9.5 -22.5t22.5 -9.5h448q13 0 22.5 9.5t9.5 22.5v288q0 13 -9.5 22.5t-22.5 9.5zM32 392h145l40 -39l10 -9h253v-32h-448v80zM32 56v224h448v-224h-448z" />
    <glyph glyph-name="uniE03A" unicode="&#xe03a;" 
d="M400 344h32q7 0 11.5 4.5t4.5 11.5v16q0 6 -4.5 11t-11.5 5h-32q-7 0 -11.5 -5t-4.5 -11v-16q0 -7 4.5 -11.5t11.5 -4.5zM400 248h32q7 0 11.5 4.5t4.5 11.5v16q0 6 -4.5 11t-11.5 5h-32q-7 0 -11.5 -5t-4.5 -11v-16q0 -7 4.5 -11.5t11.5 -4.5zM400 152h32q7 0 11.5 4.5
t4.5 11.5v16q0 6 -4.5 11t-11.5 5h-32q-7 0 -11.5 -5t-4.5 -11v-16q0 -7 4.5 -11.5t11.5 -4.5zM400 56h32q7 0 11.5 4.5t4.5 11.5v16q0 6 -4.5 11t-11.5 5h-32q-7 0 -11.5 -5t-4.5 -11v-16q0 -7 4.5 -11.5t11.5 -4.5zM80 344h32q7 0 11.5 4.5t4.5 11.5v16q0 6 -4.5 11
t-11.5 5h-32q-7 0 -11.5 -5t-4.5 -11v-16q0 -7 4.5 -11.5t11.5 -4.5zM80 248h32q7 0 11.5 4.5t4.5 11.5v16q0 6 -4.5 11t-11.5 5h-32q-7 0 -11.5 -5t-4.5 -11v-16q0 -7 4.5 -11.5t11.5 -4.5zM80 152h32q7 0 11.5 4.5t4.5 11.5v16q0 6 -4.5 11t-11.5 5h-32q-7 0 -11.5 -5
t-4.5 -11v-16q0 -7 4.5 -11.5t11.5 -4.5zM80 56h32q7 0 11.5 4.5t4.5 11.5v16q0 6 -4.5 11t-11.5 5h-32q-7 0 -11.5 -5t-4.5 -11v-16q0 -7 4.5 -11.5t11.5 -4.5zM480 472h-448q-13 0 -22.5 -9.5t-9.5 -22.5v-432q0 -13 9.5 -22.5t22.5 -9.5h448q13 0 22.5 9.5t9.5 22.5v432
q0 13 -9.5 22.5t-22.5 9.5zM480 8h-448v432h448v-432z" />
    <glyph glyph-name="uniE03B" unicode="&#xe03b;" 
d="M51 315q-7 0 -11.5 -5t-4.5 -11.5t4.5 -11.5t11.5 -5q113 0 188 -75t75 -189q0 -6 4.5 -11t11.5 -5t11.5 5t4.5 11q0 128 -84 212.5t-211 84.5zM51 479q-7 0 -11.5 -5t-4.5 -11.5t4.5 -11.5t11.5 -5q116 0 214 -57t155 -155.5t57 -213.5q0 -7 5 -12t12 -5t11.5 5t4.5 12
q0 93 -36.5 178t-98 146.5t-146.5 98t-178 36.5zM92 150q-37 0 -63.5 -26.5t-26.5 -64t26.5 -64t63.5 -26.5t63.5 26.5t26.5 64t-26.5 64t-63.5 26.5zM92 1q-24 0 -41.5 17t-17.5 41.5t17.5 42t41.5 17.5t41.5 -17.5t17.5 -42t-17.5 -41.5t-41.5 -17z" />
    <glyph glyph-name="uniE03C" unicode="&#xe03c;" 
d="M512 194q0 34 -3 61q-11 98 -82 161.5t-170 63.5q-102 0 -175.5 -70t-78.5 -175q-2 -24 -2 -37v-7q-1 -5 -1 -9v-108q0 -17 12.5 -29.5t30.5 -12.5h43q17 0 29.5 12.5t12.5 29.5v108q0 17 -12.5 29.5t-29.5 12.5h-43q-5 0 -9 -1v7v4q5 91 69.5 152.5t153.5 61.5
q86 0 148.5 -55.5t71.5 -140.5q1 -7 2 -29q-5 1 -10 1h-42q-18 0 -30.5 -12.5t-12.5 -29.5v-107q0 -26 23 -38l-103 -40v3q0 6 -4.5 11t-11.5 5h-48q-7 0 -11.5 -5t-4.5 -11v-16q0 -7 4.5 -11.5t11.5 -4.5h48h29l165 64q3 2 5 4q25 12 25 39v107q0 3 -1 7q1 3 1 5zM43 192
h43q4 0 7 -3t3 -7v-108q0 -4 -3 -7t-7 -3h-43q-5 0 -8 3t-3 7v108q0 4 3 7t8 3zM416 182q0 4 3 7t8 3h42q5 0 8 -3t3 -7v-107q0 -5 -3 -8t-8 -3h-42q-5 0 -8 3t-3 8v107z" />
    <glyph glyph-name="uniE03D" unicode="&#xe03d;" 
d="M512 178q0 34 -3 61q-11 98 -82 161.5t-170 63.5q-102 0 -175.5 -70t-78.5 -175q-2 -24 -2 -37v-7q-1 -5 -1 -9v-140q0 -17 12.5 -29.5t30.5 -12.5h43q17 0 29.5 12.5t12.5 29.5v139q0 18 -12.5 30.5t-29.5 12.5h-43q-5 0 -9 -1v7v4q5 91 69.5 152.5t153.5 61.5
q86 0 148.5 -55.5t71.5 -140.5q1 -7 2 -29q-5 1 -10 1h-42q-18 0 -30.5 -12.5t-12.5 -30.5v-138q0 -18 12.5 -30.5t30.5 -12.5h42q18 0 30.5 12.5t12.5 30.5v138q0 4 -1 8q1 3 1 5zM43 176h43q4 0 7 -3t3 -8v-139q0 -4 -3 -7t-7 -3h-43q-5 0 -8 3t-3 7v139q0 5 3 8t8 3z
M480 27q0 -5 -3 -8t-8 -3h-42q-5 0 -8 3t-3 8v138q0 5 3 8t8 3h42q5 0 8 -3t3 -8v-138z" />
    <glyph glyph-name="uniE03E" unicode="&#xe03e;" 
d="M255 -31q-72 0 -123.5 50.5t-51.5 122.5q0 38 23 94.5t57.5 112t52 82t29.5 42.5q5 6 13 6t13 -6q12 -16 30 -42t53 -81t58 -112t23 -96q0 -72 -52 -122.5t-125 -50.5zM255 436q-28 -40 -55 -82.5t-57.5 -108t-30.5 -103.5q0 -59 42 -100t101 -41q60 0 102.5 41t42.5 100
q0 39 -30.5 104.5t-58 108t-56.5 81.5z" />
    <glyph glyph-name="uniE03F" unicode="&#xe03f;" 
d="M511 225l-58 204q-4 11 -16 11h-367q-13 0 -16 -12l-54 -193q-1 -5 1 -11q-1 -4 -1 -9v-175q0 -14 9.5 -23t22.5 -9h448q13 0 22.5 9t9.5 23v175v2v1q0 4 -1 7zM82 408h343l47 -161h-149q-1 -28 -19.5 -46t-47.5 -18t-47 18t-19 46h-153zM480 40h-448v175h132
q10 -30 34.5 -47t57.5 -17t57.5 17t35.5 47h131v-175z" />
    <glyph glyph-name="uniE040" unicode="&#xe040;" 
d="M384 480h-176q-13 0 -22.5 -9.5t-9.5 -22.5h176v-128h128v-256h-112v-32h112q13 0 22.5 9.5t9.5 22.5v288zM384 352v83l83 -83h-83zM32 416q-13 0 -22.5 -9.5t-9.5 -22.5v-384q0 -13 9.5 -22.5t22.5 -9.5h272q13 0 22.5 9.5t9.5 22.5v288l-128 128h-176zM304 0h-272v384
h144v-128h128v-256zM208 288v83l83 -83h-83z" />
    <glyph glyph-name="uniE041" unicode="&#xe041;" 
d="M509 387l-50 56q-5 5 -12 5h-175v17q0 6 -5 10.5t-11.5 4.5t-11 -4.5t-4.5 -10.5v-17h-128q-7 0 -11.5 -4.5t-4.5 -11.5v-112q0 -6 4.5 -11t11.5 -5h128v-32h-175q-7 0 -12 -5l-50 -57q-9 -11 0 -21l50 -56q5 -5 12 -5h175v-145q0 -6 4.5 -10.5t11 -4.5t11.5 4.5t5 10.5
v145h128q6 0 11 4.5t5 11.5v112q0 7 -5 11.5t-11 4.5h-128v32h175q7 0 12 6l50 56q9 10 0 21zM384 160h-312l-35 39l35 41h312v-80zM440 336h-312v80h312l35 -40z" />
    <glyph glyph-name="uniE042" unicode="&#xe042;" 
d="M483 331l-89 96q-5 5 -12 5h-133l-1 33q0 6 -4.5 10.5t-11 4.5t-11 -4.5t-4.5 -10.5v-33h-177q-6 0 -11 -4.5t-5 -11.5v-192q0 -7 5 -11.5t11 -4.5h176v-225q0 -6 5 -10.5t11.5 -4.5t11 4.5t4.5 10.5v225h134q7 0 12 5l89 96q11 11 0 22zM375 240h-319v160h319l75 -80z
" />
    <glyph glyph-name="uniE043" unicode="&#xe043;" 
d="M509 332l-70 134q-7 14 -23 14h-161h-1h-158q-16 0 -24 -14l-69 -131q-8 -14 2 -27l240 -335q3 -5 8.5 -5t9.5 5l244 332q10 13 2 27zM471 336h-86l35 98zM288 448h103l-32 -91zM334 336h-149l71 101zM157 351l-32 97h99zM340 304l-86 -246l-81 246h167zM218 64l-172 240
h93zM374 304h93l-177 -240zM94 439l34 -103h-88z" />
    <glyph glyph-name="uniE044" unicode="&#xe044;" 
d="M416 272h-32v32q0 14 -9.5 23t-22.5 9h-320q-13 0 -22.5 -9t-9.5 -23v-240q0 -40 28 -68t68 -28h192q40 0 68 28t28 68v16h32q40 0 68 28t28 67.5t-28 68t-68 28.5zM352 64q0 -27 -18.5 -45.5t-45.5 -18.5h-192q-27 0 -45.5 18.5t-18.5 45.5v240h320v-240zM416 112h-32
v128h32q28 0 46.5 -18t18.5 -45.5t-18.5 -46t-46.5 -18.5zM288 368q7 0 11.5 4.5t4.5 11.5v80q0 7 -4.5 11.5t-11.5 4.5t-11.5 -4.5t-4.5 -11.5v-80q0 -7 4.5 -11.5t11.5 -4.5zM96 368q7 0 11.5 4.5t4.5 11.5v80q0 7 -4.5 11.5t-11.5 4.5t-11.5 -4.5t-4.5 -11.5v-80
q0 -7 4.5 -11.5t11.5 -4.5zM192 368q7 0 11.5 4.5t4.5 11.5v80q0 7 -4.5 11.5t-11.5 4.5t-11.5 -4.5t-4.5 -11.5v-80q0 -7 4.5 -11.5t11.5 -4.5z" />
    <glyph glyph-name="uniE045" unicode="&#xe045;" 
d="M367 340l-157 -67q-4 -3 -7 -7l-71 -145q-5 -9 2 -17q5 -5 11 -5q4 0 7 2l153 63q4 3 6 7l76 148q5 10 -2.5 18t-17.5 3zM179 148l43 88l44 -55zM292 200l-44 56l88 35zM256 480q-106 0 -181 -75t-75 -181t75 -181t181 -75t181 75t75 181t-75 181t-181 75zM256 -1
q-93 0 -158.5 66t-65.5 159t65.5 158.5t158.5 65.5t158.5 -65.5t65.5 -158.5t-65.5 -159t-158.5 -66z" />
    <glyph glyph-name="uniE046" unicode="&#xe046;" 
d="M500 94q-58 41 -104 69q-7 4 -16 4q-12 0 -25 -6q-10 -6 -46 -26q-30 22 -75 67q-46 45 -67 76l25 45q13 25 3 42q-45 71 -69 104q-9 11 -26 11q-14 0 -25 -8q-8 -5 -21.5 -15.5t-34 -33.5t-20.5 -37q4 -105 158.5 -260t260.5 -158h1q14 0 36 20t33 33.5t16 21.5
q10 15 8 29.5t-12 21.5zM478 61q-15 -21 -33.5 -39.5t-26.5 -21.5q-93 4 -237.5 148.5t-148.5 237.5q3 8 21.5 26.5t39.5 33.5q3 2 7 2h1q30 -43 66 -100q0 -4 -3 -10q-5 -9 -25 -44l-10 -18l12 -17q23 -33 70 -80t80 -70l17 -12l17 10q36 21 45 25q6 3 10 3q41 -25 100 -66
q1 -3 -2 -8zM342 289l138 137l-1 -78q0 -5 3.5 -8.5t8.5 -3.5h8q12 0 12 11v115v6q0 6 -3 9t-8 3h-6h-115q-4 0 -7.5 -3.5t-4.5 -8.5v-8q2 -12 14 -12h75l-137 -137q-11 -11 0.5 -22t22.5 0z" />
    <glyph glyph-name="uniE047" unicode="&#xe047;" 
d="M500 94q-58 41 -104 69q-7 4 -16 4q-12 0 -25 -6q-10 -6 -46 -26q-30 22 -75 67q-46 45 -67 76l25 45q13 25 3 42q-45 71 -69 104q-9 11 -26 11q-14 0 -25 -8q-8 -5 -21.5 -15.5t-34 -33.5t-20.5 -37q4 -105 158.5 -260t260.5 -158h1q14 0 36 20t33 33.5t16 21.5
q10 15 8 29.5t-12 21.5zM478 61q-15 -21 -33.5 -39.5t-26.5 -21.5q-93 4 -237.5 148.5t-148.5 237.5q3 8 21.5 26.5t39.5 33.5q3 2 7 2h1q30 -43 66 -100q0 -4 -3 -10q-5 -9 -25 -44l-10 -18l12 -17q23 -33 70 -80t80 -70l17 -12l17 10q36 21 45 25q6 3 10 3q41 -25 100 -66
q1 -3 -2 -8zM322 292q3 -4 8 -4l6 1l115 -1q5 0 8.5 3.5t3.5 8.5v8q-2 13 -13 12h-76l131 131q11 12 -0.5 23t-22.5 0l-131 -131v77q0 5 -3 8.5t-8 3.5h-8q-12 0 -12 -10l-1 -116h1l-1 -6q0 -5 3 -8z" />
    <glyph glyph-name="uniE048" unicode="&#xe048;" 
d="M481 380v-1q-43 -30 -100 -66q-4 0 -10 3l-45 25l-18 10l-16 -12q-33 -23 -80 -70q-48 -47 -71 -80l-11 -17l10 -17l25 -45q3 -6 3 -10q-25 -40 -67 -100q-3 -1 -7 2q-21 15 -40 33.5t-22 26.5q5 93 149 237.5t237 148.5q9 -3 27.5 -21.5t33.5 -39.5q2 -3 2 -7zM512 380
q0 14 -8 25q-6 9 -16 22t-32.5 33.5t-36.5 20.5q-106 -4 -260.5 -158.5t-158.5 -260.5v-1q0 -14 20.5 -36t34 -33t20.5 -16q16 -10 30 -8.5t22 12.5q41 58 69 104q4 7 4 16q0 12 -7 25q-5 10 -26 46q22 30 67 75t76 67q36 -20 46 -25q24 -13 41 -3q63 40 103 69q12 9 12 26z
" />
    <glyph glyph-name="uniE049" unicode="&#xe049;" 
d="M480 480h-448q-13 0 -22.5 -9.5t-9.5 -22.5v-448q0 -13 9.5 -22.5t22.5 -9.5h448q13 0 22.5 9.5t9.5 22.5v448q0 13 -9.5 22.5t-22.5 9.5zM480 0h-448v448h448v-448zM112 304h32v-32q0 -7 4.5 -11.5t11.5 -4.5t11.5 4.5t4.5 11.5v32h32q7 0 11.5 4.5t4.5 11t-4.5 11.5
t-11.5 5h-32v32q0 6 -4.5 11t-11.5 5t-11.5 -5t-4.5 -11v-32h-32q-7 0 -11.5 -5t-4.5 -11.5t4.5 -11t11.5 -4.5zM216.5 184.5q-11.5 11.5 -22.5 -0.5l-34 -34l-34 34q-11 12 -22.5 0.5t-0.5 -22.5l34 -34l-34 -34q-11 -11 0.5 -22.5t22.5 -0.5l34 34l34 -34q11 -11 22.5 0.5
t0.5 22.5l-34 34l34 34q11 11 -0.5 22.5zM304 304h96q7 0 11.5 4.5t4.5 11t-4.5 11.5t-11.5 5h-96q-7 0 -11.5 -5t-4.5 -11.5t4.5 -11t11.5 -4.5zM304 144h96q7 0 11.5 4.5t4.5 11t-4.5 11.5t-11.5 5h-96q-7 0 -11.5 -5t-4.5 -11.5t4.5 -11t11.5 -4.5zM304 80h96
q7 0 11.5 4.5t4.5 11t-4.5 11.5t-11.5 5h-96q-7 0 -11.5 -5t-4.5 -11.5t4.5 -11t11.5 -4.5z" />
    <glyph glyph-name="uniE04A" unicode="&#xe04a;" 
d="M212 140q88 0 146.5 46t57.5 118q0 65 -60.5 110.5t-146.5 45.5q-87 0 -148 -45.5t-61 -110.5q0 -43 21 -81t61 -59h-1q0 -22 -27 -69q-1 -3 -1 -5q0 -5 3.5 -8.5t8.5 -3.5h2h1q27 5 64 28.5t47 35.5q10 -2 23 -2h4h6zM165 175l-20 -17q-13 -15 -43 -34q4 14 7 24t3 13v3
l2 20l-18 9q-31 16 -47.5 47t-16.5 64q0 52 52 88t125 36t124 -36t51 -88q0 -57 -48.5 -94.5t-122.5 -37.5q-15 -1 -30 2zM512 175q0 66 -59 101q-1 -15 -8 -35q35 -24 35 -66q0 -51 -53 -79l-16 -8q1 -41 4 -51q-14 10 -24.5 20.5t-13.5 16.5l-4 5l-17 -3l-25 -1
q-62 0 -103 32h-45q51 -64 148 -64h5h5q11 0 20 2q10 -13 36.5 -33t49.5 -24h2h1q10 0 10 10q0 2 -1 4q-5 10 -11 30.5t-6 34.5v1q70 36 70 107z" />
    <glyph glyph-name="uniE04B" unicode="&#xe04b;" 
d="M480 384h-128v31q0 20 -14 34t-34 14h-96q-20 0 -34 -14t-14 -34v-31h-128q-13 0 -22.5 -9.5t-9.5 -22.5v-112v-32v-191q0 -13 9.5 -22.5t22.5 -9.5h448q13 0 22.5 9.5t9.5 22.5v335q0 13 -9.5 22.5t-22.5 9.5zM192 415q0 7 4.5 11.5t11.5 4.5h96q7 0 11.5 -4.5
t4.5 -11.5v-31h-128v31zM32 352h448v-112h-176v17q0 13 -9.5 22.5t-22.5 9.5h-32q-13 0 -22.5 -9.5t-9.5 -22.5v-17h-176v112zM272 176h-32v81h32v-81zM32 17v191h176v-32q0 -13 9.5 -22.5t22.5 -9.5h32q13 0 22.5 9.5t9.5 22.5v32h176v-191h-448z" />
    <glyph glyph-name="uniE04C" unicode="&#xe04c;" 
d="M476 479l-211 -57q-4 -1 -11.5 -1t-11.5 1l-206 57q-14 4 -25 -4.5t-11 -22.5v-389q0 -12 8 -22.5t19 -13.5l207 -57q8 -2 20 -2q11 0 19 2l211 57q12 3 20 13.5t8 22.5v389q0 14 -11 22.5t-25 4.5zM240 2l-204 56q-4 1 -4 5v384l202 -56q2 -1 6 -1v-388zM480 63
q0 -4 -4 -5l-204 -55v388h1l207 56v-384zM321 297h4l112 32q7 2 10 7.5t1.5 12t-7.5 10t-12 1.5l-112 -32q-7 -2 -10 -7.5t-1 -11.5q3 -12 15 -12zM321 201h4l112 32q7 2 10 7.5t1.5 12t-7.5 10t-12 1.5l-112 -32q-7 -2 -10 -7.5t-1 -11.5q3 -12 15 -12zM321 105h4l112 32
q7 2 10 7.5t1.5 12t-7.5 10t-12 1.5l-112 -32q-7 -2 -10 -7.5t-1 -11.5q3 -12 15 -12zM197 328l-112 32q-6 2 -12 -1.5t-7.5 -10t1.5 -12t10 -7.5l112 -32h4q12 0 15 12q2 6 -1 11.5t-10 7.5zM197 232l-112 32q-6 2 -12 -1.5t-7.5 -10t1.5 -12t10 -7.5l112 -32h4q12 0 15 12
q2 6 -1 11.5t-10 7.5zM197 136l-112 32q-6 2 -12 -1.5t-7.5 -10t1.5 -12t10 -7.5l112 -32h4q12 0 15 12q2 6 -1 11.5t-10 7.5z" />
    <glyph glyph-name="uniE04D" unicode="&#xe04d;" 
d="M508 338q-5 7 -13 7h-50l-103 87q-9 10 -22 10t-23 -10l-101 -87h-41l-25 88q-12 39 -44 39h-69q-6 0 -11 -4.5t-5 -11t5 -11.5t11 -5h69q8 0 13 -15l88 -325q4 -12 16 -12h216q11 0 15 11l76 224q3 8 -2 15zM320 410l76 -65h-152zM408 120h-193l-51 193h308zM376 56
q-17 0 -28.5 -11.5t-11.5 -28.5t11.5 -28.5t28.5 -11.5t28.5 11.5t11.5 28.5t-11.5 28.5t-28.5 11.5zM232 56q-17 0 -28.5 -11.5t-11.5 -28.5t11.5 -28.5t28.5 -11.5t28.5 11.5t11.5 28.5t-11.5 28.5t-28.5 11.5z" />
    <glyph glyph-name="uniE04E" unicode="&#xe04e;" 
d="M508 338q-5 7 -13 7h-340l-25 88q-12 39 -44 39h-69q-6 0 -11 -4.5t-5 -11t5 -11.5t11 -5h69q8 0 13 -15l88 -325q4 -12 16 -12h216q11 0 15 11l76 224q3 8 -2 15zM408 120h-193l-51 193h308zM376 56q-17 0 -28.5 -11.5t-11.5 -28.5t11.5 -28.5t28.5 -11.5t28.5 11.5
t11.5 28.5t-11.5 28.5t-28.5 11.5zM232 56q-17 0 -28.5 -11.5t-11.5 -28.5t11.5 -28.5t28.5 -11.5t28.5 11.5t11.5 28.5t-11.5 28.5t-28.5 11.5z" />
    <glyph glyph-name="uniE04F" unicode="&#xe04f;" 
d="M432 401h-96v30q0 20 -14 34t-34 14h-63q-20 0 -34 -14t-14 -34v-30h-97q-13 0 -22.5 -9.5t-9.5 -22.5v-368q0 -14 9.5 -23t22.5 -9h352q13 0 22.5 9t9.5 23v368q0 13 -9.5 22.5t-22.5 9.5zM209 431q0 7 4.5 11.5t11.5 4.5h63q7 0 11.5 -4.5t4.5 -11.5v-30h-95v30zM432 1
h-352v368h97v-33q-1 -16 15 -16q8 0 12.5 4t4.5 8v4v33h95v-33q-1 -16 16 -16q7 0 11 4t5 8v4v33h96v-368z" />
    <glyph glyph-name="uniE050" unicode="&#xe050;" 
d="M495 9h-1q-12 0 -13 14q-1 4 -2 10.5t-7 22t-15.5 29.5t-28.5 30.5t-43 29t-62 20.5t-84 8v-92q0 -10 -9 -14.5t-17 2.5l-207 172q-6 4 -6 12t6 12l207 171q8 6 17 1.5t9 -14.5v-90q142 -4 213 -87q21 -25 35 -57t18.5 -58t5.5 -53.5t0.5 -38t-1.5 -17.5q-2 -13 -15 -13z
M223 205h1q57 0 101.5 -8.5t74 -25t47.5 -32t33 -36.5q-10 73 -53 122q-66 77 -204 77q-6 0 -11 4.5t-5 11.5v72l-166 -137l166 -138v74q0 7 5 11.5t11 4.5z" />
    <glyph glyph-name="uniE051" unicode="&#xe051;" 
d="M17 9h1q12 0 13 14q1 5 2 11t7 21.5t15.5 29.5t28 30.5t42.5 29t62 20.5t84 8l1 -92q0 -10 9 -14.5t17 2.5l207 172q6 4 6 12t-6 12l-207 171q-8 6 -17 1.5t-9 -14.5l-1 -90q-141 -4 -212 -87q-21 -25 -35 -57t-18.5 -58t-5.5 -53.5t-0.5 -38t1.5 -17.5q2 -13 15 -13z
M289 205h-1q-57 0 -101.5 -8.5t-74 -25t-47.5 -32t-33 -36.5q10 73 53 122q66 77 204 77q6 0 11 4.5t5 11.5v72l166 -137l-166 -138v74q0 7 -5 11.5t-11 4.5z" />
    <glyph glyph-name="uniE052" unicode="&#xe052;" 
d="M503 372q-9 4 -16 -2l-81 -73l-73 75l73 83q6 7 2 16t-14 9h-4q-118 0 -156 -38l-7 -7q-27 -28 -33 -69.5t9 -76.5l-184 -188q-19 -19 -19 -46t19 -45l22 -23q19 -19 45.5 -19t44.5 19l188 189q29 -16 62 -16q51 0 87 37l7 7q37 37 37 154q0 10 -9 14zM453 225l-6 -6
q-27 -27 -66 -27q-23 0 -40 7q-15 6 -27 17l-205 -206q-10 -10 -23 -10t-22 10l-23 22q-9 10 -9 23.5t9 22.5l201 205q-10 14 -14 31q-7 22 -2 52t23 47l6 7q24 24 105 29l-59 -68q-9 -10 1 -21l93 -95q10 -10 20 0l66 58q-5 -74 -28 -98z" />
    <glyph glyph-name="uniE053" unicode="&#xe053;" 
d="M512 225q0 -6 -4.5 -11t-11.5 -5h-224v-162q0 -33 -23.5 -56t-56 -23t-55.5 23t-23 56q0 7 4.5 11.5t11 4.5t11.5 -4.5t5 -11.5q0 -19 13.5 -33t33 -14t33.5 14t14 33v162h-224q-7 0 -11.5 5t-4.5 11q0 93 64 148.5t176 58.5v32q0 7 4.5 11.5t11 4.5t11.5 -4.5t5 -11.5
v-32q112 -3 176 -58.5t64 -148.5zM480 241q-6 76 -65 118t-159.5 42t-159 -42t-64.5 -118h448z" />
    <glyph glyph-name="uniE054" unicode="&#xe054;" 
d="M448 400h-112v44q0 15 -11 25.5t-26 10.5h-86q-15 0 -26 -10.5t-11 -25.5v-44h-112q-7 0 -11.5 -4.5t-4.5 -11t4.5 -11.5t11.5 -5h22l37 -369q1 -13 10.5 -22t22.5 -9h200q13 0 22.5 8.5t10.5 21.5l37 370h22q7 0 11.5 5t4.5 11.5t-4.5 11t-11.5 4.5zM208 444q0 5 5 5h86
q5 0 5 -5v-44h-96v44zM357 1q0 -1 -1 -1h-200q-1 0 -1 2l-37 366h276z" />
    <glyph glyph-name="uniE055" unicode="&#xe055;" 
d="M512 272v169q0 16 -11.5 27.5t-27.5 11.5h-166h-7q-27 0 -38 -11l-253 -253q-9 -9 -9 -22.5t9 -22.5l194 -194q9 -9 22.5 -9t22.5 9l253 253q11 11 11 42zM479 253l-254 -253l-193 194l253 252q2 2 15 2h7h166q7 0 7 -7v-169q0 -16 -1 -19zM384.5 416
q-26.5 0 -45.5 -18.5t-19 -45.5t19 -45.5t45.5 -18.5t45 18.5t18.5 45.5t-18.5 45.5t-45 18.5zM384 320q-13 0 -22.5 9.5t-9.5 22.5t9.5 22.5t22.5 9.5t22.5 -9.5t9.5 -22.5t-9.5 -22.5t-22.5 -9.5z" />
    <glyph glyph-name="uniE056" unicode="&#xe056;" 
d="M256 480q-106 0 -181 -75t-75 -181t75 -181t181 -75t181 75t75 181t-75 181t-181 75zM320 439q54 -17 94 -57t56 -94h-103q-18 29 -47 47v104zM352 224q0 -40 -28 -68t-68 -28t-68 28t-28 68t28 68t68 28t68 -28t28 -68zM224 446q16 2 32 2t32 -2v-98q-16 4 -32 4t-32 -4
v98zM192 439v-104q-29 -18 -47 -47h-103q16 54 56 94t94 57zM32 224q0 15 3 32h97q-4 -16 -4 -32t4 -32h-97q-3 17 -3 32zM192 9q-54 16 -94 56.5t-56 94.5h103q17 -30 47 -47v-104zM288 2q-16 -2 -32 -2t-32 2v98q16 -4 32 -4t32 4v-98zM320 9v104q30 17 47 47h103
q-16 -54 -56 -94.5t-94 -56.5zM380 192q4 16 4 32t-4 32h97q3 -17 3 -32t-3 -32h-97z" />
    <glyph glyph-name="uniE057" unicode="&#xe057;" 
d="M343 288l138 137l-1 -77q0 -5 3.5 -8.5t8.5 -3.5h8q12 0 12 10v116v6q0 5 -3 8t-8 3h-6l-115 1q-4 0 -7.5 -3.5t-4.5 -8.5v-9q2 -12 14 -11l75 -1l-137 -136q-11 -11 0.5 -22.5t22.5 -0.5zM170 160l-138 -137v77q0 5 -3 8.5t-8 3.5h-9q-12 0 -12 -10v-116v-6q0 -5 2 -8
q4 -3 9 -3h6l115 -1q5 0 8.5 3.5t3.5 8.5v9q-1 12 -13 11l-76 1l137 136q11 11 0 22.5t-22 0.5zM512 -14v116q0 10 -12 10h-8q-5 0 -8.5 -3.5t-3.5 -8.5l1 -77l-138 137q-11 11 -22.5 -0.5t-0.5 -22.5l137 -136l-75 -1q-12 1 -14 -11v-9q1 -5 4.5 -8.5t7.5 -3.5l115 1h6
q5 0 9 3q2 3 2 8v6zM55 447l76 1q12 -1 13 11v9q0 5 -3.5 8.5t-8.5 3.5l-115 -1h-6q-5 0 -9 -3q-2 -3 -2 -8v-6v-116q0 -10 12 -10h9q5 0 8 3.5t3 8.5v77l138 -137q11 -11 22 0.5t0 22.5z" />
    <glyph glyph-name="uniE058" unicode="&#xe058;" 
d="M192 307l-1 115q0 10 -12 11h-8q-5 0 -8 -3.5t-3 -8.5v-78l-133 132q-5 5 -11.5 5t-11.5 -5q-11 -11 0 -23l133 -131h-76q-12 0 -13 -12v-8q0 -5 3.5 -8.5t8.5 -3.5h115h6q5 0 8 3t3 8l-1 6zM323 292q3 -3 8 -3h6h115q5 0 8.5 3.5t3.5 8.5v8q-1 12 -13 12h-76l133 131
q11 12 -0.5 23t-22.5 0l-133 -132v78q0 5 -3 8.5t-8 3.5h-8q-12 -1 -12 -11l-1 -115l1 -1l-1 -6q0 -5 3 -8zM189 156q-3 4 -8 4l-6 -1l-115 1q-5 0 -8.5 -3.5t-3.5 -8.5v-8q1 -13 13 -12h76l-133 -132q-4 -5 -4 -11.5t4.5 -11.5t11 -5t11.5 5l133 132v-78q0 -5 3 -8.5
t8 -3.5h8q12 1 12 11l1 115l-1 1l1 6q0 5 -3 8zM375 128h76q12 -1 13 12v8q0 5 -3.5 8.5t-8.5 3.5h-115h-7q-4 0 -8 -4q-3 -3 -3 -8l1 -6l-1 -1l1 -115q0 -10 12 -11h8q5 0 8.5 3.5t3.5 8.5l-1 78l134 -132q11 -11 22.5 0t0.5 23z" />
    <glyph glyph-name="uniE059" unicode="&#xe059;" 
d="M201 227l20 28l-67 91h-153v-32h136zM459 314l-38 -34q-10 -9 -2 -17l3 -4q8 -8 17 0l64 58l4 4q4 4 4 8.5t-4 8.5l-4 4l-65 59q-9 8 -17 0l-3 -4q-8 -7 2 -16l38 -35h-116l-205 -288h-136v-32h153l204 288h101zM503 54l-65 59q-9 8 -17 0l-3 -4q-8 -7 2 -16l38 -35h-100
l-57 89l-20 -28l61 -93h117l-38 -34q-10 -9 -2 -17l3 -4q8 -8 17 0l64 58l4 4q4 4 4 8.5t-4 8.5z" />
    <glyph glyph-name="uniE05A" unicode="&#xe05a;" 
d="M451 5h-416v320h129l32 31l-1 1h-160q-13 0 -22.5 -9t-9.5 -23v-320q0 -13 9.5 -22.5t22.5 -9.5h416q13 0 22.5 9.5t9.5 22.5v251l-32 -31v-220zM135 133h32q17 97 92.5 160.5t174.5 63.5h17l-59 -58q-11 -12 0 -23q5 -5 11.5 -5t11.5 5l94 97l-94 97q-12 11 -23 0t0 -23
l58 -58h-15q-113 0 -198 -73t-102 -183z" />
    <glyph glyph-name="uniE05B" unicode="&#xe05b;" 
d="M432 128q-40 0 -64 -32l-211 107q3 11 3 21q0 13 -4 26l211 103q24 -33 65 -33q33 0 56.5 23.5t23.5 56.5t-23.5 56.5t-56.5 23.5t-56.5 -23.5t-23.5 -56.5q0 -9 2 -18l-215 -104q-24 26 -59 26q-33 0 -56.5 -23.5t-23.5 -56.5t23.5 -56.5t56.5 -23.5q39 0 63 30
l211 -107q-2 -10 -2 -19q0 -33 23.5 -56.5t56.5 -23.5t56.5 23.5t23.5 56.5t-23.5 56.5t-56.5 23.5zM432 448q20 0 34 -14t14 -34t-14 -34t-34 -14t-34 14t-14 34t14 34t34 14zM80 176q-20 0 -34 14t-14 34t14 34t34 14t34 -14t14 -34t-14 -34t-34 -14zM432 0q-20 0 -34 14
t-14 34t14 34t34 14t34 -14t14 -34t-14 -34t-34 -14z" />
    <glyph glyph-name="uniE05C" unicode="&#xe05c;" 
d="M105 38q-7 -13 -11.5 -18.5t-19.5 -11.5t-42 -6q2 37 8.5 49t24.5 21q19 9 31 18l-19 25q-8 -6 -26 -15q-29 -14 -40 -36t-11 -78v-16h16q41 0 65 6.5t33.5 16.5t18.5 29q7 16 11 22l-24 21q-7 -9 -15 -27zM352.5 386q-26.5 0 -45.5 -19t-19 -45.5t19 -45.5t45.5 -19
t45.5 19t19 45.5t-19 45.5t-45.5 19zM352.5 289q-13.5 0 -23 9.5t-9.5 23t9.5 23t23 9.5t23 -9.5t9.5 -23t-9.5 -23t-23 -9.5zM512 465q-1 14 -15 15q-6 -1 -26 0.5t-65.5 -5t-84.5 -20.5q-46 -18 -81 -59q-17 -20 -58 -101q-13 -27 -19 -37h-89q-7 0 -12 -5l-59 -64
q-6 -7 -3 -15.5t12 -10.5l95 -22q7 -8 35 -39l36 -40l20 -83q2 -8 10 -11q3 -1 5 -1q6 0 11 4l59 59q6 5 6 12v83q3 2 35 20q9 5 37.5 19.5t47 25.5t28.5 20q37 33 54 79q12 32 17.5 77t4 68t-0.5 31zM461 300q-14 -38 -46 -66q-8 -8 -26.5 -18.5t-45 -24t-35.5 -18.5
q-40 -23 -46 -28q-5 -4 -5 -12v-84l-34 -37l-15 61q-1 4 -3 7q-73 81 -78 86q-3 4 -8 5l-74 17l36 38h91q9 0 14 8q7 11 25 46q39 78 53 95q30 35 69 50q66 24 147 24q2 -92 -19 -149z" />
    <glyph glyph-name="uniE05D" unicode="&#xe05d;" 
d="M256 480q-106 0 -181 -75t-75 -181t75 -181t181 -75t181 75t75 181t-75 181t-181 75zM256 -1q-93 0 -158.5 66t-65.5 159t65.5 158.5t158.5 65.5t158.5 -65.5t65.5 -158.5t-65.5 -159t-158.5 -66zM232 80h41v40h-41v-40zM256 368q-36 0 -58.5 -19t-22.5 -59l1 -1h37
q0 27 12.5 37t30.5 10q20 0 31 -11t11 -32q0 -18 -8 -30t-28 -35q-20 -18 -24.5 -29t-4.5 -39h38q0 18 2.5 26t12.5 19q23 22 37 43t14 46q0 35 -21.5 54.5t-59.5 19.5z" />
    <glyph glyph-name="uniE05E" unicode="&#xe05e;" 
d="M288 433q-7 0 -11.5 -4.5t-4.5 -11t4.5 -11.5t11.5 -5q84 0 138 -55t54 -141q0 -85 -60 -145t-145 -60t-140.5 55t-55.5 140q0 7 -5 11.5t-11.5 4.5t-11 -4.5t-4.5 -11.5q0 -98 64.5 -162.5t163 -64.5t168 69.5t69.5 167.5q0 99 -63 163.5t-161 64.5zM240 256v208
q0 7 -4.5 11.5t-11.5 4.5q-93 0 -158.5 -65.5t-65.5 -158.5q0 -7 4.5 -11.5t11.5 -4.5h208q7 0 11.5 4.5t4.5 11.5zM208 272h-175q5 71 54.5 120.5t120.5 54.5v-175z" />
    <glyph glyph-name="uniE05F" unicode="&#xe05f;" 
d="M482 455q-26 25 -57 25q-35 0 -62 -27l-317 -316q-3 -3 -4 -8q-2 -7 -42 -140q-3 -10 4 -17q5 -4 12 -4h5q104 35 138 45q3 1 6 4q295 291 318 315q30 31 30 63q-1 32 -31 60zM358 402q25 -6 47 -28q21 -21 26 -48q-68 -68 -265 -263q-10 24 -27 41q-21 21 -47 32l76 76
l110 110zM70 109q25 -6 46 -28q17 -17 24 -40q-10 -3 -47.5 -16t-54.5 -18q5 15 16.5 52t15.5 50zM460 355l-3 -3q-10 26 -29 45q-20 20 -44 31l1 1l1 1q18 18 39 18q18 0 35 -17q20 -19 20 -37t-20 -39z" />
    <glyph glyph-name="uniE060" unicode="&#xe060;" 
d="M400 0h-368v400h224l33 31l-1 1h-256q-14 0 -23 -9.5t-9 -22.5v-400q0 -13 9 -22.5t23 -9.5h368q13 0 22.5 9.5t9.5 22.5v234l-32 -30v-204zM487 459q-22 21 -47 21q-29 0 -52 -22q-3 -4 -58 -58.5t-108 -107.5l-53 -53q-3 -3 -4 -7q-7 -27 -34 -116q-3 -8 3 -14
q4 -4 9 -4q3 0 5 1q65 22 114 37q3 1 5 3q214 211 221 218q25 26 24 52q0 27 -25 50zM465 379q-13 -13 -207 -204l-10 -10q-18 -6 -77 -25q18 60 24 79l216 216q13 13 29 13q12 0 25 -12q15 -14 15 -27q1 -14 -15 -30z" />
    <glyph glyph-name="uniE061" unicode="&#xe061;" 
d="M496 127v1v334v5q-3 13 -16 13q-4 0 -8 -2l-299 -78q-8 -2 -11 -10q-2 -4 -2 -8v-286q-24 16 -56 16q-37 0 -62.5 -21t-25.5 -51t25.5 -51t62.5 -21t62.5 21t25.5 51v6v326l272 71v-267q-24 16 -56 16q-37 0 -62.5 -21t-25.5 -51t25.5 -51t62.5 -21t62.5 21t25.5 51v7z
M104 0q-24 0 -40 12.5t-16 27.5t16 27.5t40 12.5q22 0 37 -10t19 -24q0 -2 1 -4v-2v0q0 -15 -16.5 -27.5t-40.5 -12.5zM408 80q-24 0 -40 12.5t-16 27.5t16 27.5t40 12.5t40 -12.5t16 -27.5t-16 -27.5t-40 -12.5z" />
    <glyph glyph-name="uniE062" unicode="&#xe062;" 
d="M426 318l-156 157q-8 8 -18 3q-11 -4 -11 -15v-354q-28 20 -64 20q-40 0 -68 -23.5t-28 -57t28 -56.5t68 -23t68 23t28 57v5v373l131 -131q11 -12 22.5 -0.5t-0.5 22.5zM177 1q-27 0 -45.5 15t-18.5 33t18.5 33t45.5 15q26 0 44.5 -14.5t19.5 -32.5v-3
q-1 -17 -19.5 -31.5t-44.5 -14.5z" />
    <glyph glyph-name="uniE063" unicode="&#xe063;" 
d="M255 128h4q34 0 55.5 22t21.5 56v191q0 35 -22 59t-55 24h-4q-32 0 -55.5 -24.5t-23.5 -58.5v-191q0 -33 22.5 -55.5t56.5 -22.5zM208 397q0 21 14 36t33 15h4q19 0 32 -14.5t13 -36.5v-191q0 -21 -12.5 -33.5t-32.5 -12.5h-4q-21 0 -34 13t-13 33v191zM400 304
q-7 0 -11.5 -4.5t-4.5 -11.5v-67q0 -141 -104 -141h-47q-33 0 -55 12.5t-32 35t-14 44t-4 49.5v67q0 7 -4.5 11.5t-11.5 4.5t-11.5 -4.5t-4.5 -11.5v-67q0 -83 34.5 -128t102.5 -45h7v-48h-80q-7 0 -11.5 -4.5t-4.5 -11.5t4.5 -11.5t11.5 -4.5h192q7 0 11.5 4.5t4.5 11.5
t-4.5 11.5t-11.5 4.5h-80v48h8q26 0 48 7.5t43 25t33 53.5t12 87v67q0 7 -4.5 11.5t-11.5 4.5z" />
    <glyph glyph-name="uniE064" unicode="&#xe064;" 
d="M480 429h-448q-13 0 -22.5 -9.5t-9.5 -22.5v-288q0 -13 9.5 -22.5t22.5 -9.5h80q7 0 11.5 6.5t4.5 10t-4.5 9.5t-11.5 6h-60q-8 0 -14 6t-6 14v248q0 8 5.5 13.5t14.5 5.5l409 1q8 0 13.5 -5.5t5.5 -13.5v-249q0 -8 -5.5 -14t-13.5 -6h-202l38 35q9 9 2 16l-3 4
q-9 8 -17 0l-65 -59l-4 -4q-4 -4 -4 -8.5t4 -8.5l4 -4l64 -58q8 -8 17 0l3 4q7 8 -2 16l-39 35h223q13 0 22.5 9.5t9.5 22.5v288q0 13 -9.5 22.5t-22.5 9.5z" />
    <glyph glyph-name="uniE065" unicode="&#xe065;" 
d="M58 208h278q6 0 11 5t5 11.5t-5 11t-11 4.5h-277l58 58q12 11 0.5 22.5t-22.5 0.5l-95 -97l95 -97q4 -5 11 -5t11 5q12 11 0 22zM480 480h-272q-13 0 -22.5 -9.5t-9.5 -22.5v-144h32v124q0 9 5.5 14.5t13.5 5.5h233q8 0 13.5 -5.5t5.5 -14.5l1 -409q0 -8 -6 -13.5
t-14 -5.5h-233q-8 0 -13.5 5.5t-5.5 13.5v126l-32 -1v-144q0 -13 9.5 -22.5t22.5 -9.5h272q13 0 22.5 9.5t9.5 22.5v448q0 13 -9.5 22.5t-22.5 9.5z" />
    <glyph glyph-name="uniE066" unicode="&#xe066;" 
d="M266 149q-11 -11 0 -22q5 -5 11.5 -5t11.5 5l94 97l-94 97q-11 11 -22.5 -0.5t-0.5 -22.5l58 -58h-308q-7 0 -11.5 -4.5t-4.5 -11t4.5 -11.5t11.5 -5h309zM480 480h-288q-13 0 -22.5 -9.5t-9.5 -22.5v-144h32v124q0 9 6 14.5t14 5.5h248q8 0 13.5 -5.5t5.5 -14.5l1 -409
q0 -8 -5.5 -13.5t-13.5 -5.5h-249q-8 0 -14 5.5t-6 13.5v126l-32 -1v-144q0 -13 9.5 -22.5t22.5 -9.5h288q13 0 22.5 9.5t9.5 22.5v448q0 13 -9.5 22.5t-22.5 9.5z" />
    <glyph glyph-name="uniE067" unicode="&#xe067;" 
d="M48 256h-32q-7 0 -11.5 -4.5t-4.5 -11.5v-32q0 -7 4.5 -11.5t11.5 -4.5h32q7 0 11.5 4.5t4.5 11.5v32q0 7 -4.5 11.5t-11.5 4.5zM496 240h-336q-7 0 -11.5 -4.5t-4.5 -11.5t4.5 -11.5t11.5 -4.5h336q7 0 11.5 4.5t4.5 11.5t-4.5 11.5t-11.5 4.5zM48 128h-32
q-7 0 -11.5 -4.5t-4.5 -11.5v-32q0 -7 4.5 -11.5t11.5 -4.5h32q7 0 11.5 4.5t4.5 11.5v32q0 7 -4.5 11.5t-11.5 4.5zM496 112h-336q-7 0 -11.5 -4.5t-4.5 -11.5t4.5 -11.5t11.5 -4.5h336q7 0 11.5 4.5t4.5 11.5t-4.5 11.5t-11.5 4.5zM48 384h-32q-7 0 -11.5 -4.5t-4.5 -11.5
v-32q0 -7 4.5 -11.5t11.5 -4.5h32q7 0 11.5 4.5t4.5 11.5v32q0 7 -4.5 11.5t-11.5 4.5zM160 336h336q7 0 11.5 4.5t4.5 11.5t-4.5 11.5t-11.5 4.5h-336q-7 0 -11.5 -4.5t-4.5 -11.5t4.5 -11.5t11.5 -4.5z" />
    <glyph glyph-name="uniE068" unicode="&#xe068;" 
d="M304 -32q-70 0 -104 2.5t-41.5 5.5t-18.5 12q-15 11 -94 16q-8 1 -12 6q-3 4 -9.5 16t-15.5 44t-9 67q0 72 24 111q5 8 14 8q42 0 92.5 51t86.5 138q1 2 3 7.5t3 7t3 5.5t3.5 5.5t4.5 4t6.5 3t8.5 1.5t11 1q13 0 27 -8.5t21 -21.5q10 -16 11.5 -44.5t-2 -54t-8.5 -48.5
q89 1 121 1q29 0 47.5 -16t18.5 -42q1 -22 -4 -33q20 -20 20 -39q1 -23 -22 -48q6 -18 5 -25q-1 -27 -31 -48q2 -17 -1 -30q-12 -55 -159 -55zM55 37q82 -7 104 -24q8 -6 14 -8t36 -3.5t95 -1.5q121 0 128 30q2 11 -9 22h-1q-2 6 0.5 12.5t8.5 8.5q32 12 32 30q1 10 -7 18
q-9 14 4 22q21 17 20 30q0 13 -19 24q-6 3 -7.5 10.5t3.5 12.5q1 2 2 4.5t3.5 9t1.5 11.5q0 27 -34 27h-144q-9 0 -14 7q-4 6 -1 15q13 36 16.5 77.5t-6.5 62.5q-1 0 -2.5 3.5t-2.5 4.5l-3 3l-5 3h-8q-7 0 -13 -15q-39 -93 -93.5 -148t-105.5 -61q-16 -37 -16 -87
q0 -62 23 -100z" />
    <glyph glyph-name="uniE069" unicode="&#xe069;" 
d="M508 223l-240 252q-5 5 -11.5 5t-11.5 -5l-241 -252q-11 -11 0.5 -22t22.5 0l21 23v-240q0 -6 5 -11t11 -5h112q7 0 11.5 5t4.5 11l1 160h127v-160q0 -6 4.5 -11t11.5 -5h112q6 0 11 5t5 11v240l21 -23q5 -5 12 -5q6 0 11 5q11 11 0 22zM432 253v-253h-80v160
q0 7 -4.5 11.5t-11.5 4.5h-159q-7 0 -11.5 -4.5t-4.5 -11.5l-1 -160h-80v253v3l177 185l175 -184v-4z" />
    <glyph glyph-name="uniE06A" unicode="&#xe06a;" 
d="M480 -32h-160q-13 0 -22.5 9.5t-9.5 22.5v160q0 13 9.5 22.5t22.5 9.5h160q13 0 22.5 -9.5t9.5 -22.5v-160q0 -13 -9.5 -22.5t-22.5 -9.5zM480 160h-160v-160h160v160zM480 256h-160q-13 0 -22.5 9.5t-9.5 22.5v160q0 13 9.5 22.5t22.5 9.5h160q13 0 22.5 -9.5t9.5 -22.5
v-160q0 -13 -9.5 -22.5t-22.5 -9.5zM480 448h-160v-160h160v160zM192 -32h-160q-13 0 -22.5 9.5t-9.5 22.5v160q0 13 9.5 22.5t22.5 9.5h160q13 0 22.5 -9.5t9.5 -22.5v-160q0 -13 -9.5 -22.5t-22.5 -9.5zM192 160h-160v-160h160v160zM192 256h-160q-13 0 -22.5 9.5
t-9.5 22.5v160q0 13 9.5 22.5t22.5 9.5h160q13 0 22.5 -9.5t9.5 -22.5v-160q0 -13 -9.5 -22.5t-22.5 -9.5zM192 448h-160v-160h160v160z" />
    <glyph glyph-name="uniE06B" unicode="&#xe06b;" 
d="M472 368q-17 0 -28.5 -11.5t-11.5 -28.5q0 -6 2 -13l-97 -84q-11 9 -25 9q-16 0 -28 -11l-76 38q-1 15 -12.5 26t-27.5 11q-17 0 -28.5 -11.5t-11.5 -28.5q0 -9 4 -17l-78 -90q-7 3 -14 3q-17 0 -28.5 -11.5t-11.5 -28.5t11.5 -28.5t28.5 -11.5t28.5 11.5t11.5 28.5
q0 8 -3 15l79 91q7 -2 12 -2q17 0 29 13l75 -37q0 -17 12 -28.5t28 -11.5q17 0 28.5 11.5t11.5 28.5v1v1l104 89q8 -3 16 -3q17 0 28.5 11.5t11.5 28.5t-11.5 28.5t-28.5 11.5z" />
    <glyph glyph-name="uniE06C" unicode="&#xe06c;" 
d="M80 286v178q0 7 -4.5 11.5t-11.5 4.5t-11.5 -4.5t-4.5 -11.5v-178q-21 -5 -34.5 -22.5t-13.5 -39.5t13.5 -39.5t34.5 -22.5v-178q0 -7 4.5 -11.5t11.5 -4.5t11.5 4.5t4.5 11.5v178q21 5 34.5 22.5t13.5 39.5t-13.5 39.5t-34.5 22.5zM64 192v0q-13 0 -22.5 9.5t-9.5 22.5
t9.5 22.5t22.5 9.5v0q13 0 22.5 -9.5t9.5 -22.5t-9.5 -22.5t-22.5 -9.5zM272 190v274q0 7 -4.5 11.5t-11.5 4.5t-11.5 -4.5t-4.5 -11.5v-274q-21 -5 -34.5 -22.5t-13.5 -39.5t13.5 -39.5t34.5 -22.5v-82q0 -7 4.5 -11.5t11.5 -4.5t11.5 4.5t4.5 11.5v82q21 5 34.5 22.5
t13.5 39.5t-13.5 39.5t-34.5 22.5zM256 96v0q-13 0 -22.5 9.5t-9.5 22.5t9.5 22.5t22.5 9.5v0q13 0 22.5 -9.5t9.5 -22.5t-9.5 -22.5t-22.5 -9.5zM464 382v82q0 7 -4.5 11.5t-11.5 4.5t-11.5 -4.5t-4.5 -11.5v-82q-21 -5 -34.5 -22.5t-13.5 -39.5t13.5 -39.5t34.5 -22.5
v-274q0 -7 4.5 -11.5t11.5 -4.5t11.5 4.5t4.5 11.5v274q21 5 34.5 22.5t13.5 39.5t-13.5 39.5t-34.5 22.5zM448 288v0q-13 0 -22.5 9.5t-9.5 22.5t9.5 22.5t22.5 9.5v0q13 0 22.5 -9.5t9.5 -22.5t-9.5 -22.5t-22.5 -9.5z" />
    <glyph glyph-name="uniE06D" unicode="&#xe06d;" 
d="M208 480q70 0 104 -2.5t41.5 -5.5t18.5 -12q15 -11 94 -16q8 -1 12 -6q3 -4 9.5 -16t15.5 -44t9 -67q0 -72 -24 -111q-5 -8 -14 -8q-42 0 -92.5 -51t-86.5 -138q-1 -2 -3 -7.5t-3 -7t-3 -5.5t-3.5 -5.5t-4.5 -4t-6.5 -3t-8.5 -1.5t-11 -1q-13 0 -27 8.5t-21 21.5
q-10 16 -11.5 44.5t2 54t8.5 48.5q-90 -1 -121 -1q-29 0 -47.5 16t-18.5 42q-1 22 4 33q-20 20 -20 39q-1 23 22 48q-6 18 -5 25q1 27 31 48q-2 17 1 30q12 55 159 55zM457 411q-82 7 -104 24q-8 6 -14 8t-36 3.5t-95 1.5q-121 0 -128 -30q-2 -11 10 -22q2 -7 -0.5 -13
t-8.5 -8q-32 -12 -32 -30q-1 -6 7 -18q9 -14 -4 -22q-21 -17 -20 -30q0 -13 18 -24q7 -3 8.5 -10.5t-3.5 -12.5q-1 -2 -2 -4.5t-3.5 -9t-1.5 -11.5q0 -27 34 -27h54h63h27q9 0 14 -7q4 -6 1 -15q-13 -36 -16.5 -77.5t6.5 -62.5q1 0 2.5 -3.5t2.5 -4.5l3 -3l5 -3h8q7 0 13 15
q39 93 93.5 148t105.5 61q16 37 16 87q0 62 -23 100z" />
    <glyph glyph-name="uniE06E" unicode="&#xe06e;" 
d="M461 428l-169 -393l-59 173l-172 52zM502 480q-4 0 -11 -3l-477 -203q-13 -5 -13.5 -14t10.5 -17l198 -62l65 -201q7 -12 15 -12q10 0 16 14l204 477q9 21 -7 21z" />
    <glyph glyph-name="uniE06F" unicode="&#xe06f;" 
d="M487 447q0 19 -16 28q-7 4 -16 4t-16 -5l-368 -223q-13 -8 -15 -22v235q0 7 -4.5 11.5t-11.5 4.5t-11.5 -4.5t-4.5 -11.5v-480q0 -7 4.5 -11.5t11.5 -4.5t11.5 4.5t4.5 11.5v235q2 -14 15 -22l368 -223q8 -5 17 -5q8 0 16 4q16 9 16 28zM88 224l367 223l1 -446z" />
    <glyph glyph-name="uniE070" unicode="&#xe070;" 
d="M287 381l-253 -157l253 -157v123l192 -123v314l-192 -123v127v-4zM285.5 413q9.5 0 16.5 -4q17 -9 17 -28v-66l149 93q8 5 17 5q5 0 12 -4q14 -8 14 -28v-314q0 -20 -14 -28q-7 -4 -14 -4q-8 0 -16 5l-148 93v-66q0 -19 -17 -28q-7 -4 -16 -4t-17 5l-253 157
q-15 9 -15 27t15 27l253 157q7 5 16.5 5z" />
    <glyph glyph-name="uniE071" unicode="&#xe071;" 
d="M72 447l368 -223l-368 -223v446zM72 479q-8 0 -15 -4q-17 -9 -17 -28v-446q0 -19 16 -28q8 -4 16 -4q9 0 17 5l368 223q15 9 15 27t-15 27l-368 223q-8 5 -17 5z" />
    <glyph glyph-name="uniE072" unicode="&#xe072;" 
d="M208 480h-112q-7 0 -11.5 -4.5t-4.5 -11.5v-480q0 -7 4.5 -11.5t11.5 -4.5h112q7 0 11.5 4.5t4.5 11.5v480q0 7 -4.5 11.5t-11.5 4.5zM192 0h-80v448h80v-448zM416 480h-112q-6 0 -11 -4.5t-5 -11.5v-480q0 -7 5 -11.5t11 -4.5h112q7 0 11.5 4.5t4.5 11.5v480
q0 7 -4.5 11.5t-11.5 4.5zM400 0h-80v448h80v-448z" />
    <glyph glyph-name="uniE073" unicode="&#xe073;" 
d="M225 381l253 -157l-253 -157v123l-192 -123v314l192 -123v127v-4zM226.5 413q-9.5 0 -16.5 -4q-17 -9 -17 -28v-66l-149 93q-8 5 -17 5q-5 0 -12 -4q-14 -8 -14 -28v-314q0 -20 14 -28q7 -4 14 -4q8 0 16 5l148 93v-66q0 -19 17 -28q7 -4 16 -4t17 5l253 157q15 9 15 27
t-15 27l-253 157q-7 5 -16.5 5z" />
    <glyph glyph-name="uniE074" unicode="&#xe074;" 
d="M472 480q-7 0 -11.5 -4.5t-4.5 -11.5v-235q-2 14 -15 22l-368 223q-7 5 -16 5t-16 -4q-16 -9 -16 -28l-1 -446q0 -19 16 -28q8 -4 16 -4q9 0 17 5l368 223q13 8 15 22v-235q0 -7 4.5 -11.5t11.5 -4.5t11.5 4.5t4.5 11.5v480q0 7 -4.5 11.5t-11.5 4.5zM56 1l1 446
l367 -223z" />
    <glyph glyph-name="uniE075" unicode="&#xe075;" 
d="M480 432h-128v32q0 7 -4.5 11.5t-11.5 4.5t-11.5 -4.5t-4.5 -11.5v-32h-128v32q0 7 -4.5 11.5t-11.5 4.5t-11.5 -4.5t-4.5 -11.5v-32h-128q-13 0 -22.5 -9.5t-9.5 -22.5v-400q0 -13 9.5 -22.5t22.5 -9.5h448q13 0 22.5 9.5t9.5 22.5v400q0 13 -9.5 22.5t-22.5 9.5zM480 0
h-448v400h128v-16q0 -7 4.5 -11.5t11.5 -4.5t11.5 4.5t4.5 11.5v16h128v-16q0 -7 4.5 -11.5t11.5 -4.5t11.5 4.5t4.5 11.5v16h128v-400zM368 224h32q7 0 11.5 4.5t4.5 11.5v32q0 7 -4.5 11.5t-11.5 4.5h-32q-7 0 -11.5 -4.5t-4.5 -11.5v-32q0 -7 4.5 -11.5t11.5 -4.5z
M368 96h32q7 0 11.5 4.5t4.5 11.5v32q0 7 -4.5 11.5t-11.5 4.5h-32q-7 0 -11.5 -4.5t-4.5 -11.5v-32q0 -7 4.5 -11.5t11.5 -4.5zM272 160h-32q-7 0 -11.5 -4.5t-4.5 -11.5v-32q0 -7 4.5 -11.5t11.5 -4.5h32q7 0 11.5 4.5t4.5 11.5v32q0 7 -4.5 11.5t-11.5 4.5zM272 288h-32
q-7 0 -11.5 -4.5t-4.5 -11.5v-32q0 -7 4.5 -11.5t11.5 -4.5h32q7 0 11.5 4.5t4.5 11.5v32q0 7 -4.5 11.5t-11.5 4.5zM144 288h-32q-7 0 -11.5 -4.5t-4.5 -11.5v-32q0 -7 4.5 -11.5t11.5 -4.5h32q7 0 11.5 4.5t4.5 11.5v32q0 7 -4.5 11.5t-11.5 4.5zM144 160h-32
q-7 0 -11.5 -4.5t-4.5 -11.5v-32q0 -7 4.5 -11.5t11.5 -4.5h32q7 0 11.5 4.5t4.5 11.5v32q0 7 -4.5 11.5t-11.5 4.5z" />
    <glyph glyph-name="uniE076" unicode="&#xe076;" 
d="M256 480q-74 0 -125.5 -52.5t-51.5 -127.5q0 -34 12 -62.5t23.5 -42t30.5 -31.5q2 -1 5 -4q26 -23 26 -35v-27v-2v-46q0 -37 22 -59.5t59 -22.5q35 0 57 22.5t22 59.5v46v2v27q0 9 5 18t10.5 14t19.5 17q19 16 30 28.5t21.5 39t10.5 58.5q0 75 -51.5 127.5t-125.5 52.5z
M255 0q-22 0 -34.5 13t-12.5 37v21q20 -7 48 -7q27 0 48 7v-21q0 -24 -12.5 -37t-36.5 -13zM350 198q-16 -14 -23 -20.5t-15 -21.5t-8 -31v-20q-17 -9 -48 -9q-33 0 -48 8v21q0 13 -7.5 25.5t-13 18t-21.5 19.5q-17 16 -27 27.5t-19 34t-9 50.5q0 62 42 105t103 43t103 -43
t42 -105q0 -26 -8 -46.5t-17.5 -31t-25.5 -24.5z" />
    <glyph glyph-name="uniE077" unicode="&#xe077;" 
d="M136 320h-112q-7 0 -11.5 -4.5t-4.5 -11.5v-320q0 -7 4.5 -11.5t11.5 -4.5h112q7 0 11.5 4.5t4.5 11.5v320q0 7 -4.5 11.5t-11.5 4.5zM120 0h-80v288h80v-288zM312 225h-112q-7 0 -11.5 -4.5t-4.5 -11.5v-225q0 -7 4.5 -11.5t11.5 -4.5h112q7 0 11.5 4.5t4.5 11.5v225
q0 7 -4.5 11.5t-11.5 4.5zM296 0h-80v193h80v-193zM488 480h-112q-6 0 -11 -4.5t-5 -11.5v-480q0 -7 5 -11.5t11 -4.5h112q7 0 11.5 4.5t4.5 11.5v480q0 7 -4.5 11.5t-11.5 4.5zM472 0h-80v448h80v-448z" />
    <glyph glyph-name="uniE078" unicode="&#xe078;" 
d="M512 224q0 106 -75 181t-181 75t-181 -75t-75 -181t75 -181t181 -75t181 75t75 181zM32 224q0 93 65.5 158.5t158.5 65.5t158.5 -65.5t65.5 -158.5t-65.5 -158.5t-158.5 -65.5t-158.5 65.5t-65.5 158.5zM272 112v180l58 -58q11 -11 22.5 0.5t0.5 22.5l-97 94l-97 -94
q-5 -5 -5 -11.5t5 -11.5q11 -11 22 0l59 59v-181q0 -7 5 -11.5t11.5 -4.5t11 4.5t4.5 11.5z" />
    <glyph glyph-name="uniE079" unicode="&#xe079;" 
d="M256 480q-106 0 -181 -75t-75 -181t75 -181t181 -75t181 75t75 181t-75 181t-181 75zM256 -1q-93 0 -158.5 66t-65.5 159t65.5 158.5t158.5 65.5t158.5 -65.5t65.5 -158.5t-65.5 -159t-158.5 -66zM266.5 320.5q-11.5 -11.5 -0.5 -22.5l58 -58h-180q-7 0 -11.5 -4.5
t-4.5 -11t4.5 -11.5t11.5 -5h181l-59 -59q-11 -11 0 -22q5 -5 11.5 -5t11.5 5l94 97l-94 97q-11 11 -22.5 -0.5z" />
    <glyph glyph-name="uniE07A" unicode="&#xe07a;" 
d="M256 480q-106 0 -181 -75t-75 -181t75 -181t181 -75t181 75t75 181t-75 181t-181 75zM256 -1q-93 0 -158.5 66t-65.5 159t65.5 158.5t158.5 65.5t158.5 -65.5t65.5 -158.5t-65.5 -159t-158.5 -66zM368 240h-180l58 58q11 11 -0.5 22.5t-22.5 0.5l-94 -97l94 -97
q5 -5 11.5 -5t11.5 5q11 11 0 22l-59 59h181q7 0 11.5 5t4.5 11.5t-4.5 11t-11.5 4.5z" />
    <glyph glyph-name="uniE07B" unicode="&#xe07b;" 
d="M0 224q0 -106 75 -181t181 -75t181 75t75 181t-75 181t-181 75t-181 -75t-75 -181zM481 224q0 -93 -66 -158.5t-159 -65.5t-158.5 65.5t-65.5 158.5t65.5 158.5t158.5 65.5t159 -65.5t66 -158.5zM240 336v-180l-58 58q-11 11 -22.5 0t-0.5 -23l97 -94l97 94q5 5 5 11.5
t-5 11.5q-11 11 -22 0l-59 -59v181q0 7 -5 11.5t-11.5 4.5t-11 -4.5t-4.5 -11.5z" />
    <glyph glyph-name="uniE07C" unicode="&#xe07c;" 
d="M256 480q-106 0 -181 -75t-75 -181t75 -181t181 -75t181 75t75 181t-75 181t-181 75zM32 224q0 84 55 147l316 -316q-63 -56 -147 -56q-93 0 -158.5 66t-65.5 159zM426 78l-316 315q63 55 146 55q93 0 158.5 -65.5t65.5 -158.5q0 -83 -54 -146z" />
    <glyph glyph-name="uniE07D" unicode="&#xe07d;" 
d="M256 416q93 0 158.5 -47t65.5 -113t-65.5 -113t-158.5 -47h-8h-5q-13 0 -24 2l-18 2l-11 -14q-5 -6 -23.5 -19.5t-38.5 -23.5q10 28 11 51v1v3v19l-18 9q-42 22 -65.5 56t-23.5 74q0 66 65.5 113t158.5 47zM256 448q-106 0 -181 -56t-75 -136q0 -49 28 -90.5t79 -67.5v-1
q0 -33 -26 -77q-1 -3 -1 -6q0 -6 4 -10t11 -4h1h2h1q32 6 67.5 28.5t47.5 37.5q13 -2 29 -2h6h7q106 0 181 56t75 136t-75 136t-181 56z" />
    <glyph glyph-name="uniE07E" unicode="&#xe07e;" 
d="M319 368q1 0 1 -1v-64q0 -19 17 -28q7 -4 15 -4q11 0 19 6l109 61v-228l-109 60q-9 6 -19 6q-8 0 -15 -4q-17 -9 -17 -28v-63q0 -1 -1 -1h-286q-1 0 -1 1v286q0 1 1 1h286zM495 384q-9 0 -14 -5l-129 -76v64q0 14 -9.5 23.5t-23.5 9.5h-286q-14 0 -23.5 -9.5t-9.5 -23.5
v-286q0 -14 9.5 -23.5t23.5 -9.5h286q14 0 23.5 9.5t9.5 23.5v63l132 -77q3 -3 11 -3q4 0 7 1q10 4 10 15v288q0 11 -10 15q-3 1 -7 1z" />
    <glyph glyph-name="uniE07F" unicode="&#xe07f;" 
d="M464 368h-74l-38 64h-192l-38 -64h-74q-15 0 -31.5 -13t-16.5 -35v-256q0 -19 14 -33.5t31 -14.5h420q16 0 31.5 14.5t15.5 32.5v257q0 15 -13 31.5t-35 16.5zM480 63q0 -4 -5.5 -9.5t-9.5 -5.5h-420q-4 0 -8.5 5t-4.5 11v256q0 7 6 11.5t10 4.5h92l9 16l29 48h157
l29 -48l8 -16h92q5 0 9 -4t5.5 -7.5t1.5 -4.5v-257zM256 320q-46 0 -79 -33t-33 -79t33 -79t79 -33t79 33t33 79t-33 79t-79 33zM256 128q-33 0 -56.5 23.5t-23.5 56.5t23.5 56.5t56.5 23.5t56.5 -23.5t23.5 -56.5t-23.5 -56.5t-56.5 -23.5z" />
    <glyph glyph-name="uniE080" unicode="&#xe080;" 
d="M256 480q-106 0 -181 -75t-75 -181t75 -181t181 -75t181 75t75 181t-75 181t-181 75zM256 -1q-93 0 -158.5 66t-65.5 159t65.5 158.5t158.5 65.5t158.5 -65.5t65.5 -158.5t-65.5 -159t-158.5 -66zM358 318l-150 -151l-68 67q-11 11 -22.5 0t0.5 -22l79 -80q11 -11 23 0
q0 1 1 3l160 160q11 11 -0.5 22.5t-22.5 0.5z" />
    <glyph glyph-name="uniE081" unicode="&#xe081;" 
d="M256 480q-106 0 -181 -75t-75 -181t75 -181t181 -75t181 75t75 181t-75 181t-181 75zM256 -1q-93 0 -158.5 66t-65.5 159t65.5 158.5t158.5 65.5t158.5 -65.5t65.5 -158.5t-65.5 -159t-158.5 -66zM272 230v154q0 7 -4.5 11.5t-11.5 4.5t-11.5 -4.5t-4.5 -11.5v-160
q0 -7 5 -12h1l79 -80q11 -11 23 0q4 5 4 11.5t-4 11.5z" />
    <glyph glyph-name="uniE082" unicode="&#xe082;" 
d="M256 480q-106 0 -181 -75t-75 -181t75 -181t181 -75t181 75t75 181t-75 181t-181 75zM256 -1q-93 0 -158.5 66t-65.5 159t65.5 158.5t158.5 65.5t158.5 -65.5t65.5 -158.5t-65.5 -159t-158.5 -66zM346.5 314.5q-11.5 11.5 -22.5 0.5l-68 -68l-68 68q-11 11 -22.5 -0.5
t-0.5 -22.5l68 -68l-68 -68q-11 -11 0.5 -22.5t22.5 -0.5l68 68l68 -68q11 -11 22.5 0.5t0.5 22.5l-68 68l68 68q11 11 -0.5 22.5z" />
    <glyph glyph-name="uniE083" unicode="&#xe083;" 
d="M382 350q-18 46 -54 71.5t-89 25.5q-68 0 -113 -45t-49 -113q-34 -11 -55.5 -42t-21.5 -69q0 -47 32 -81.5t76 -34.5h14q7 0 11.5 4.5t4.5 11.5t-4.5 11.5t-11.5 4.5h-14q-31 0 -54 25t-23 59q0 30 18.5 54t45.5 29l15 2l-2 15q0 59 36 98t95 39q89 0 116 -85l3 -11h12
q45 -1 78 -33t33 -77q0 -43 -26 -79t-65 -36h-4q-7 0 -11.5 -4.5t-4.5 -11.5t4.5 -11.5t11.5 -4.5q56 2 91 47t35 100t-38 95t-92 46zM323 92q-8 9 -16 0l-35 -39v162q0 6 -5 11t-11.5 5t-11 -5t-4.5 -11v-162l-34 38q-9 9 -16 1l-4 -2q-9 -8 0 -17l57 -64l5 -4q3 -4 7.5 -4
t8.5 4l4 4l59 65q7 8 0 15z" />
    <glyph glyph-name="uniE084" unicode="&#xe084;" 
d="M382 350q-18 46 -54 71.5t-89 25.5q-68 0 -113 -45t-49 -113q-34 -11 -55.5 -42t-21.5 -69q0 -47 32 -81.5t76 -34.5h46q7 0 11.5 4.5t4.5 11.5t-4.5 11.5t-11.5 4.5h-46q-31 0 -54 25t-23 59q0 30 18.5 54t45.5 29l15 2l-2 15q0 59 36 98t95 39q89 0 116 -85l3 -11h11
q46 -1 79 -33t33 -77q0 -43 -26 -79t-65 -36h-36q-7 0 -11.5 -4.5t-4.5 -11.5t4.5 -11.5t11.5 -4.5h36q56 2 89 46.5t33 100.5q0 55 -38 95t-92 46zM268 223l-4 4q-4 4 -8.5 4t-7.5 -4l-5 -4l-57 -64q-9 -9 0 -17l4 -3q7 -8 16 2l34 37v-161q0 -6 4.5 -11t11 -5t11.5 5t5 11
v161l35 -38q9 -10 16 -2l4 3q8 8 0 17z" />
    <glyph glyph-name="uniE085" unicode="&#xe085;" 
d="M280 480h-176q-13 0 -22.5 -9.5t-9.5 -22.5v-448q0 -13 9.5 -22.5t22.5 -9.5h304q13 0 22.5 9.5t9.5 22.5v320zM408 307v-3h-144v144h3zM104 0v448h128v-176h176v-272h-304z" />
    <glyph glyph-name="uniE086" unicode="&#xe086;" 
d="M512 364q0 5 -2 9q-6 27 -38 27h-416q-34 0 -50 -21l-2 -2q-5 -6 -4 -13v-4v-256q0 -20 18 -38t38 -18h416q19 0 29.5 17t10.5 39v256v3v1zM56 368h416l-216 -172l-215 171q3 1 15 1zM472 80h-416q-7 0 -15.5 8.5t-8.5 15.5v229l214 -171q4 -3 10 -3t10 3l214 171v-229
q0 -24 -8 -24z" />
    <glyph glyph-name="uniE087" unicode="&#xe087;" 
d="M257.5 319q-39.5 0 -67.5 -28t-28 -67.5t28 -68t67.5 -28.5t68 28.5t28.5 68t-28.5 67.5t-68 28zM257.5 159q-26.5 0 -45.5 19.5t-19 45.5t19 45t45 19t45 -19t19 -45.5t-18.5 -45.5t-45 -19zM512 228v1l-1 1v1v1q-35 79 -103.5 123.5t-150.5 44.5t-151.5 -44.5
t-104.5 -122.5v-1v-1q0 -1 -1 -1v-1v-1v-4v-5v-1v-1q1 0 1 -1v-1q35 -79 104 -123t151 -44t151 44t104 122v2v0q0 1 1 1v1v1v5v4zM256 80q-71 0 -131.5 37t-92.5 107q32 69 93 106.5t132 37.5t131 -37.5t92 -107.5q-32 -69 -92.5 -106t-131.5 -37z" />
    <glyph glyph-name="uniE088" unicode="&#xe088;" 
d="M340 432q-33 0 -62.5 12t-63.5 24t-77 12q-29 0 -55 -12t-38 -25l-12 -12v-447q0 -7 4.5 -11.5t11.5 -4.5t11.5 4.5t4.5 11.5v204q32 20 69 20q43 0 79 -12t67.5 -24t64.5 -12q36 0 70 12t50 24l16 12v272q-7 -5 -19 -13t-48.5 -21.5t-72.5 -13.5zM448 225
q-50 -33 -104 -33q-31 0 -80 20q-71 28 -131 28q-36 0 -69 -16v194q33 30 73 30q47 0 102 -23q57 -25 101 -25q54 0 108 25v-200z" />
    <glyph glyph-name="uniE089" unicode="&#xe089;" 
d="M177 392l40 -39l10 -9h13h240v-288h-448v336h144h1zM192 424h-160q-13 0 -22.5 -9.5t-9.5 -22.5v-336q0 -13 9.5 -22.5t22.5 -9.5h448q13 0 22.5 9.5t9.5 22.5v288q0 13 -9.5 22.5t-22.5 9.5h-240z" />
    <glyph glyph-name="uniE08A" unicode="&#xe08a;" 
d="M144 423q36 0 90 -53l23 -22l22 22q52 53 89 53q44 0 79 -34q34 -34 34 -83t-35 -83q-2 -3 -179 -194q-5 -4 -11 -4t-10 4q-162 181 -179 198q-35 34 -35 82.5t35 83.5q30 30 77 30zM144 455q-61 0 -100 -40q-44 -43 -44 -105t44 -106l179 -197q14 -14 33.5 -14t33.5 14
q177 191 179 193q44 44 44 106t-44 106q-43 43 -101 43q-50 0 -112 -62q-62 62 -112 62z" />
    <glyph glyph-name="uniE08B" unicode="&#xe08b;" 
d="M288 112h-16v143v1q0 7 -4.5 11.5t-11.5 4.5h-32q-7 0 -11.5 -4.5t-4.5 -11.5t4.5 -11.5t11.5 -4.5h16v-128h-16q-7 0 -11.5 -4.5t-4.5 -11.5t4.5 -11.5t11.5 -4.5h64q7 0 11.5 4.5t4.5 11.5t-4.5 11.5t-11.5 4.5zM256 304q13 0 22.5 9.5t9.5 22.5t-9.5 22.5t-22.5 9.5
t-22.5 -9.5t-9.5 -22.5t9.5 -22.5t22.5 -9.5zM256 480q-106 0 -181 -75t-75 -181t75 -181t181 -75t181 75t75 181t-75 181t-181 75zM256 -1q-93 0 -158.5 66t-65.5 159t65.5 158.5t158.5 65.5t158.5 -65.5t65.5 -158.5t-65.5 -159t-158.5 -66z" />
    <glyph glyph-name="uniE08C" unicode="&#xe08c;" 
d="M327.5 480q-59.5 0 -101.5 -42t-42 -102q0 -53 34 -94q-7 1 -12 -4l-161 -163q-11 -11 0 -22v-1l79 -80q11 -11 22.5 0.5t-0.5 22.5l-67 69l41 42l68 -70q11 -11 22.5 0.5t-0.5 22.5l-68 69l87 87q5 5 4 12q41 -35 95 -35q60 0 102 42t42 102t-42.5 102t-102 42zM328 224
q-46 0 -79 33t-33 79t33 79t79 33t79 -33t33 -79t-33 -79t-79 -33z" />
    <glyph glyph-name="uniE08D" unicode="&#xe08d;" 
d="M148 113.5q5 -4.5 11.5 -4.5t10.5 5l194 195q12 11 0.5 22.5t-22.5 0.5l-194 -196q-5 -4 -5 -11t5 -11.5zM238 148q8 -37 -18 -64l-65 -63q-21 -21 -51 -21t-51 21t-21 51t21 51l63 65q21 21 51 21q9 0 19 -3l25 25q-21 10 -44 10q-43 0 -74 -31l-63 -65q-30 -30 -30 -73
t30.5 -73.5t73.5 -30.5t74 30l64 63q23 23 28.5 53.5t-7.5 58.5zM481.5 449.5q-30.5 30.5 -73.5 30.5t-74 -30l-64 -63q-24 -24 -29 -57t9 -62l25 25q-12 41 17 71l65 63q21 21 51 21t51 -21t21 -51t-21 -51l-65 -64q-21 -21 -50 -21h-14l-26 -25q17 -7 40 -7q43 0 73 30
l65 65q30 30 30 73t-30.5 73.5z" />
    <glyph glyph-name="uniE08E" unicode="&#xe08e;" 
d="M400 288h-16v61q0 56 -36.5 93.5t-92 37.5t-91.5 -38t-36 -93v-61h-16q-26 0 -45 -19t-19 -45v-192q0 -26 19 -45t45 -19h288q26 0 45 19t19 45v192q0 26 -19 45t-45 19zM160 349q0 42 26.5 70.5t69 28.5t69.5 -28.5t27 -70.5v-61h-192v61zM432 32q0 -13 -9.5 -22.5
t-22.5 -9.5h-288q-13 0 -22.5 9.5t-9.5 22.5v192q0 13 9.5 22.5t22.5 9.5h288q13 0 22.5 -9.5t9.5 -22.5v-192zM256 192q-13 0 -22.5 -9.5t-9.5 -22.5q0 -18 16 -28v-52q0 -7 4.5 -11.5t11.5 -4.5t11.5 4.5t4.5 11.5v52q16 10 16 28q0 13 -9.5 22.5t-22.5 9.5z" />
    <glyph glyph-name="uniE08F" unicode="&#xe08f;" 
d="M400 287h-228l-9 38q-11 40 7.5 74.5t59.5 45.5t74.5 -9.5t44.5 -61.5l6 -27q2 -6 8 -9.5t12 -1.5t9.5 7.5t1.5 12.5l-6 27q-15 53 -59.5 80t-98.5 12.5t-79 -60t-11 -99.5l7 -29h-27q-26 0 -45 -18.5t-19 -45.5v-192q0 -26 19 -45t45 -19h288q26 0 45 19t19 45v192
q0 27 -19 45.5t-45 18.5zM432 31q0 -13 -9.5 -22.5t-22.5 -9.5h-288q-13 0 -22.5 9.5t-9.5 22.5v192q0 14 9.5 23t22.5 9h288q13 0 22.5 -9t9.5 -23v-192zM256 191q-13 0 -22.5 -9t-9.5 -23q0 -18 16 -27v-53q0 -6 4.5 -11t11.5 -5t11.5 5t4.5 11v53q16 9 16 27
q0 14 -9.5 23t-22.5 9z" />
    <glyph glyph-name="uniE090" unicode="&#xe090;" 
d="M507 -5l-155 157q46 56 46 128q0 83 -58.5 141.5t-141.5 58.5t-141.5 -58.5t-58.5 -141.5t58.5 -141.5t141.5 -58.5q75 0 131 49l156 -156q11 -11 22.5 0t-0.5 22zM198.5 112q-69.5 0 -119 49t-49.5 119t49.5 119t119 49t119 -49t49.5 -119t-49.5 -119t-119 -49z" />
    <glyph glyph-name="uniE091" unicode="&#xe091;" 
d="M507 -5l-141 143q48 58 48 134q0 86 -60.5 147t-147 61t-147.5 -61t-61 -147.5t61 -147.5t148 -61q78 0 136 52l142 -142q11 -11 22.5 0t-0.5 22zM206.5 96q-72.5 0 -124.5 51.5t-52 124.5t52 124.5t124.5 51.5t124 -51.5t51.5 -124.5t-51.5 -124.5t-124 -51.5zM286 288
h-64v64q0 7 -4.5 11.5t-11 4.5t-11.5 -4.5t-5 -11.5v-64h-64q-6 0 -11 -4.5t-5 -11.5t5 -11.5t11 -4.5h64v-64q0 -7 5 -11.5t11.5 -4.5t11 4.5t4.5 11.5v64h64q7 0 11.5 4.5t4.5 11.5t-4.5 11.5t-11.5 4.5z" />
    <glyph glyph-name="uniE092" unicode="&#xe092;" 
d="M507 -5l-141 143q48 58 48 134q0 86 -60.5 147t-147 61t-147.5 -61t-61 -147.5t61 -147.5t148 -61q78 0 136 52l142 -142q11 -11 22.5 0t-0.5 22zM206.5 96q-72.5 0 -124.5 51.5t-52 124.5t52 124.5t124.5 51.5t124 -51.5t51.5 -124.5t-51.5 -124.5t-124 -51.5zM286 288
h-160q-6 0 -11 -4.5t-5 -11.5t5 -11.5t11 -4.5h160q7 0 11.5 4.5t4.5 11.5t-4.5 11.5t-11.5 4.5z" />
    <glyph glyph-name="uniE093" unicode="&#xe093;" 
d="M86 -24q-33 0 -59 26q-27 27 -27 66.5t27 67.5l287 305q34 33 80 30.5t84 -40.5q35 -35 34 -89q0 -53 -36 -88l-217 -231q-11 -12 -22.5 -1t-0.5 23l217 231q27 27 27.5 67t-25.5 66q-16 16 -35.5 24.5t-42 5.5t-40.5 -21l-287 -305q-18 -18 -18 -44t18 -45
q17 -17 39 -15.5t42 20.5l228 243q27 27 8 46q-9 9 -18 9q-10 -1 -22 -13l-172 -183q-11 -12 -22.5 -1t-0.5 23l172 183q20 21 42 23q24 2 44 -19q18 -18 16 -43t-24 -47l-228 -243q-28 -29 -63 -31h-5z" />
    <glyph glyph-name="uniE094" unicode="&#xe094;" 
d="M502 480q-5 0 -11 -3l-477 -202q-13 -6 -14 -15t11 -16l135 -84q29 -18 47 -47l81 -133q6 -11 15 -11q10 0 16 13l204 477q9 21 -7 21zM163 188l-110 68l367 156l-236 -240q-11 10 -21 16zM286 22l-65 107q-5 9 -14 20l237 241z" />
    <glyph glyph-name="uniE095" unicode="&#xe095;" 
d="M256 480q-106 0 -181 -75t-75 -181t75 -181t181 -75t181 75t75 181t-75 181t-181 75zM256 -1q-93 0 -158.5 66t-65.5 159t65.5 158.5t158.5 65.5t158.5 -65.5t65.5 -158.5t-65.5 -159t-158.5 -66zM368 240h-96v96q0 7 -4.5 11.5t-11.5 4.5t-11.5 -4.5t-4.5 -11.5v-96h-96
q-7 0 -11.5 -4.5t-4.5 -11.5t4.5 -11.5t11.5 -4.5h96v-96q0 -7 4.5 -11.5t11.5 -4.5t11.5 4.5t4.5 11.5v96h96q7 0 11.5 4.5t4.5 11.5t-4.5 11.5t-11.5 4.5z" />
    <glyph glyph-name="uniE096" unicode="&#xe096;" 
d="M258 480q-79 0 -136.5 -58t-57.5 -137q0 -23 7 -49t14 -45t26 -48.5t27 -42t35 -45t31 -37.5t32 -37q11 -13 26 -13h1q14 0 25 13q160 184 160 304q0 83 -51.5 139t-138.5 56zM264 2l-2 -1q-1 1 -2 1l-8 10q-35 39 -54 63t-47 64t-41.5 76.5t-13.5 69.5q0 66 48 114.5
t114 48.5q77 0 117.5 -48t40.5 -115q0 -108 -152 -283zM256.5 383q-39.5 0 -67.5 -28t-28 -67.5t28 -68t67.5 -28.5t68 28.5t28.5 68t-28.5 67.5t-68 28zM256.5 223q-26.5 0 -45.5 19.5t-19 45.5t18.5 45t45 19t45.5 -19t19 -45.5t-18.5 -45.5t-45 -19z" />
    <glyph glyph-name="uniE097" unicode="&#xe097;" 
d="M351 398q-6 3 -12.5 0.5t-9 -8.5t-0.5 -12t8 -9q61 -29 91 -88.5t16 -125.5q-16 -78 -83 -122.5t-145 -27.5q-76 15 -120 82q-45 67 -28 146q9 45 37 80.5t69 55.5q6 3 8.5 9t-0.5 12t-9 8.5t-12 -0.5q-49 -23 -81.5 -64.5t-43.5 -94.5q-19 -91 33 -169q52 -79 141 -97
q22 -4 45 -4q79 0 141.5 50t79.5 130q16 76 -19 146t-106 103zM256 272q7 0 11.5 4.5t4.5 11.5v176q0 7 -4.5 11.5t-11.5 4.5t-11.5 -4.5t-4.5 -11.5v-176q0 -7 4.5 -11.5t11.5 -4.5z" />
    <glyph glyph-name="uniE098" unicode="&#xe098;" 
d="M249 31l-46 72q-6 9 -16 4l-4 -2q-9 -5 -3 -17l30 -45l-3 1h-5q-38 10 -69.5 35.5t-49.5 60.5q-36 70 -13 144q24 74 95 110q14 8 7 21q-3 6 -9.5 8t-11.5 -1q-83 -43 -110 -129q-28 -86 14 -167q21 -42 57.5 -71t82.5 -41h1h1l-41 -21q-10 -5 -4 -15l1 -4q6 -9 15 -4
l74 38h1l5 3q4 2 5 6.5t-1 8.5zM457 320q-22 41 -57.5 70t-80.5 41q-4 1 -13 3l40 20q11 6 5 15l-1 5q-6 9 -16 4l-74 -38h-1l-5 -3q-4 -2 -5 -6.5t1 -8.5l3 -5v-1l46 -71q6 -10 16 -5l4 3q9 5 2 16l-29 46q11 -2 19 -4q80 -21 118 -96q36 -69 12.5 -143.5t-92.5 -110.5
q-14 -7 -7 -21q4 -8 14 -8q3 0 7 1q81 42 108.5 129t-14.5 168z" />
    <glyph glyph-name="uniE099" unicode="&#xe099;" 
d="M256 480q-96 0 -164 -68t-68 -164q0 -90 61 -156.5t150 -74.5l-45 -23q-12 -7 -6 -16l1 -4q7 -10 17 -5l76 40h1l5 3q4 2 5.5 6.5t-1.5 8.5l-3 5v1l-47 74q-7 10 -17 4l-4 -3q-9 -5 -2 -16l28 -44l-1 1q-78 5 -132 62.5t-54 136.5q0 83 58.5 141.5t141 58.5t141.5 -58.5
t59 -141.5q0 -48 -21 -89.5t-59 -70.5q-13 -10 -3 -22.5t22 -3.5q45 34 69 82.5t24 103.5q0 96 -68 164t-164 68z" />
    <glyph glyph-name="uniE09A" unicode="&#xe09a;" 
d="M480 272l-41 10q-4 14 -12 29l22 37q18 28 0 45l-22 23q-11 9 -23.5 8.5t-23.5 -7.5l-36 -23q-14 8 -29 13l-9 41q-2 13 -11.5 22.5t-22.5 9.5h-32q-25 0 -32 -32l-10 -41q-16 -5 -31 -13l-37 23q-11 7 -24 7.5t-23 -8.5l-22 -23q-18 -17 0 -45l23 -39q-7 -14 -11 -27
l-41 -10q-13 -2 -22.5 -11.5t-9.5 -21.5v-32q0 -13 9.5 -21t22.5 -11l42 -11q4 -12 10 -25l-23 -39q-18 -28 0 -45l22 -23q10 -9 23 -9t24 8l37 23q15 -8 31 -13l10 -41q3 -13 11.5 -22.5t20.5 -9.5h32q13 0 22.5 9.5t11.5 22.5l9 41q15 5 29 13l36 -23q11 -8 23.5 -8
t23.5 9l22 23q18 17 0 45l-22 37q7 14 11 27l42 11q13 3 22.5 11t9.5 21v32q0 12 -9.5 21.5t-22.5 11.5zM480 209q-3 -2 -7 -3l-59 -15l-6 -17q-4 -11 -10 -23l-8 -15l32 -53q2 -4 3 -7l-21 -21q-4 1 -6 2l-52 33l-17 -8q-11 -6 -24 -10l-17 -6l-13 -59q-1 -5 -4 -7h-29
q-2 3 -3 7l-14 59l-17 5q-14 5 -26 11l-17 9l-53 -33q-3 -3 -6 -3l-21 21q1 3 3 7l33 54l-8 16q-6 11 -9 21l-5 17l-59 15q-5 1 -8 3v30h1q3 2 4 2l61 13l5 18q4 11 10 23l8 16l-33 54q-2 4 -3 7l21 21q4 -1 5 -2l54 -34l17 9q12 6 25 10l17 6l15 58q1 5 3 8h30l1 -1
q1 -3 1 -4l14 -61l17 -6q12 -4 24 -10l17 -8l51 32q4 3 7 3l21 -21q-1 -3 -3 -7l-32 -53l8 -16q7 -12 11 -24l5 -18l59 -13q6 -1 7 -4v-28zM256 320q-40 0 -68 -28t-28 -68t28 -68t68 -28t68.5 28t28.5 68t-28.5 68t-68.5 28zM256 160q-26 0 -45 19t-19 45t19 45t45 19
t45 -19t19 -45t-19 -45t-45 -19z" />
    <glyph glyph-name="uniE09B" unicode="&#xe09b;" 
d="M497 412l-161 67l-160 -63l-161 63q-1 1 -4 1q-11 0 -11 -13v-415q0 -6 4.5 -12t10.5 -8l162 -64l159 65l161 -63h4q11 0 11 12v410q0 7 -4.5 13t-10.5 7z" />
    <glyph glyph-name="uniE09C" unicode="&#xe09c;" 
d="M141 480q-10 -2 -10 -12v-53q-14 -3 -24 -15.5t-10 -27.5q0 -19 13.5 -32.5t32 -13.5t32 13.5t13.5 32.5q0 15 -9.5 27.5t-24.5 15.5v53q0 12 -11 12h-2zM368 480q-10 0 -10 -12v-53q-15 -3 -24.5 -15.5t-9.5 -27.5q0 -19 13.5 -32.5t32 -13.5t32 13.5t13.5 32.5
q0 15 -10 27.5t-24 15.5v53q0 12 -12 12h-1zM75 447q-24 0 -40.5 -17t-16.5 -40v-362q0 -24 16.5 -40.5t40.5 -16.5h362q24 0 40.5 16.5t16.5 40.5v362q0 23 -16.5 40t-40.5 17h-34q-11 0 -11 -11.5t11 -11.5h34q14 0 24 -10t10 -24v-76h-430v76q0 14 10 24t24 10h34
q11 0 11 11.5t-11 11.5h-34zM177 447q-12 0 -12 -11.5t12 -11.5h158h1q11 0 11 11t-11 12h-1h-158zM143 394q9 0 15.5 -6.5t6.5 -16t-6.5 -16t-16 -6.5t-16 6.5q-8.03203 8.03203 -6.5 16.5q4 22 23 22zM369.5 394q9.5 0 16 -6.5t6.5 -16t-6.5 -16t-16 -6.5t-16 6.5t-6.5 16
t6.5 16t16 6.5z" />
    <glyph glyph-name="uniE09D" unicode="&#xe09d;" 
d="M386 62q56 0 91 47q35 45 35 100t-38 95t-92 46q-18 46 -54 71.5t-89 25.5q-68 0 -113 -45t-49 -113q-34 -11 -55.5 -42t-21.5 -69q0 -47 32 -81.5t76 -34.5h278z" />
    <glyph glyph-name="uniE09E" unicode="&#xe09e;" 
d="M464 368h-74l-38 64h-192l-38 -64h-74q-15 0 -31.5 -13t-16.5 -35v-256q0 -19 14 -33.5t31 -14.5h420q16 0 31.5 14.5t15.5 32.5v257q0 15 -13 31.5t-35 16.5z" />
    <glyph glyph-name="uniE09F" unicode="&#xe09f;" 
d="M192 424h-160q-13 0 -22.5 -9.5t-9.5 -22.5v-336q0 -13 9.5 -22.5t22.5 -9.5h448q13 0 22.5 9.5t9.5 22.5v288q0 13 -9.5 22.5t-22.5 9.5h-240z" />
    <glyph glyph-name="uniE0A0" unicode="&#xe0a0;" 
d="M77 46l-65.8604 179l65.8604 179l179 65.8604l179 -65.8604l65.8604 -179l-65.8604 -179l-179 -65.8604z" />
    <glyph glyph-name="uniE0A1" unicode="&#xe0a1;" 
d="M509 332l-70 134q-7 14 -23 14h-161h-1h-158q-16 0 -24 -14l-69 -131q-8 -14 2 -27l240 -335q3 -5 8.5 -5t9.5 5l244 332q10 13 2 27z" />
    <glyph glyph-name="uniF000" unicode="&#xf000;" 
d="M256 448q-106 0 -181 -56t-75 -136q0 -49 28 -90.5t79 -67.5v-1q0 -33 -26 -77q-1 -3 -1 -6q0 -6 4 -10t11 -4h1h2h1q32 6 67.5 28.5t47.5 37.5q13 -2 29 -2h6h7q106 0 181 56t75 136t-75 136t-181 56z" />
    <glyph glyph-name="uniF00A" unicode="&#xf00a;" horiz-adv-x="427" 
d="M213.5 405q88.5 0 151 -62.5t62.5 -150.5t-62.5 -150.5t-151 -62.5t-151 62.5t-62.5 150.5t62.5 150.5t151 62.5z" />
    <glyph glyph-name="uniF00B" unicode="&#xf00b;" 
d="M502 394v33q0 14 -9.5 23t-22.5 9h-428q-13 0 -22.5 -9t-9.5 -23v-353q0 -40 28 -68t68 -28h300q40 0 68 28t28 68v16v304z" />
    <glyph glyph-name="uniF1C8" unicode="&#xf1c8;" 
d="M454 408q-9 8 -22 8h-2h-14q-35 0 -64 7q-14 3 -30.5 14t-32 23.5t-16.5 13.5q-8 6 -17.5 6t-17.5 -6q-1 0 -4 -2l-6 -7l-10 -9l-12 -9l-14 -10l-16 -9l-16 -5q-28 -7 -64 -7h-14h-2q-13 0 -22 -8q-10 -10 -10 -24v-80q0 -60 11 -111t27 -84.5t39 -60t41.5 -40.5
t39.5 -23.5t29.5 -12t14.5 -3.5q3 -1 5.5 -1t5.5 1q6 1 14 3.5t29.5 12t40.5 23.5t41.5 40.5t39 60t27.5 84.5t11 111v80q0 14 -10 24z" />
    <glyph glyph-name="uniF1E3" unicode="&#xf1e3;" 
d="M480 452h-448q-13 0 -22.5 -9.5t-9.5 -22.5v-292q0 -13 9.5 -22.5t22.5 -9.5h188v-68h-60q-7 0 -11.5 -4.5t-4.5 -11.5t4.5 -11.5t11.5 -4.5h192q7 0 11.5 4.5t4.5 11.5t-4.5 11.5t-11.5 4.5h-60v68h188q13 0 22.5 9.5t9.5 22.5v292q0 13 -9.5 22.5t-22.5 9.5z" />
    <glyph glyph-name="uniF1F2" unicode="&#xf1f2;" horiz-adv-x="384" 
d="M272 384l112 -112v-160l-112 -112h-160l-112 112v160l112 112h160zM192 79q12 0 20 8t8 19.5t-8 19.5t-20 8t-20 -8t-8 -19.5t8 -19.5t20 -8zM213 171v128h-42v-128h42z" />
    <glyph glyph-name="uniF201" unicode="&#xf201;" horiz-adv-x="299" 
d="M149 405q62 0 106 -43.5t44 -105.5q0 -31 -15.5 -71.5t-37.5 -75t-44 -65t-37 -48.5l-16 -17q-6 6 -16 18t-35.5 46.5t-45.5 67t-36 73.5t-16 72q0 62 43.5 105.5t105.5 43.5zM149 203q22 0 38 15.5t16 37.5t-16 37.5t-38 15.5t-37.5 -15.5t-15.5 -37.5t15.5 -37.5
t37.5 -15.5z" />
    <glyph glyph-name="uniF254" unicode="&#xf254;" horiz-adv-x="432" 
d="M431 290l-98 -98l98 -98l-30 -30l-128 128l128 128zM0 48v48h292l40 -48h-332zM0 168v48h252l-3 -24l3 -24h-252zM0 336h332l-40 -48h-292v48z" />
    <glyph glyph-name="uniF276" unicode="&#xf276;" horiz-adv-x="427" 
d="M213.5 405q88.5 0 151 -62.5t62.5 -150.5t-62.5 -150.5t-151 -62.5t-151 62.5t-62.5 150.5t62.5 150.5t151 62.5zM320 171v42h-85v86h-43v-86h-85v-42h85v-86h43v86h85z" />
    <glyph glyph-name="uniF2AE" unicode="&#xf2ae;" horiz-adv-x="469" 
d="M363 277q17 0 29.5 -12.5t12.5 -29.5v-214q0 -17 -12.5 -29.5t-29.5 -12.5h-256q-18 0 -30.5 12.5t-12.5 29.5v214q0 17 12.5 29.5t30.5 12.5h21v43q0 44 31.5 75.5t75.5 31.5t75 -31.5t31 -75.5v-43h22zM234.5 85q17.5 0 30 12.5t12.5 30.5t-12.5 30.5t-30 12.5
t-30 -12.5t-12.5 -30.5t12.5 -30.5t30 -12.5zM301 277v43q0 27 -19.5 46.5t-47 19.5t-46.5 -19.5t-19 -46.5v-43h132z" />
    <glyph glyph-name="uniF2F9" unicode="&#xf2f9;" horiz-adv-x="256" 
d="M226 265l30 -30l-128 -128l-128 128l30 30l98 -98z" />
    <glyph glyph-name="uniF2FA" unicode="&#xf2fa;" horiz-adv-x="158" 
d="M158 290l-98 -98l98 -98l-30 -30l-128 128l128 128z" />
    <glyph glyph-name="uniF2FB" unicode="&#xf2fb;" horiz-adv-x="158" 
d="M30 320l128 -128l-128 -128l-30 30l98 98l-98 98z" />
    <glyph glyph-name="uniF2FC" unicode="&#xf2fc;" horiz-adv-x="256" 
d="M128 277l128 -128l-30 -30l-98 98l-98 -98l-30 30z" />
    <glyph glyph-name="uniF328" unicode="&#xf328;" 
d="M478 163h-160v-160h160v160zM286 195h224v-224h-224v224zM194 163h-160v-160h160v160zM2 195h224v-224h-224v224zM478 447h-160v-160h160v160zM286 479h224v-224h-224v224zM194 447h-160v-160h160v160zM2 479h224v-224h-224v224z" />
    <glyph glyph-name="uniF402" unicode="&#xf402;" 
d="M133 446q-7 0 -15 -2q-19 -6 -34 -20q-70 -71 -62 -130q8 -61 101 -154l61 -61q94 -94 154 -102t130 62q15 15 20 34q8 26 -7 40q-39 40 -87 64q-18 9 -40 -6q-5 -4 -24 -22q-18 -18 -20 -19q-6 -5 -10 -5q-5 -1 -16 6q-12 9 -34 30l-44 44q-18 18 -30 35q-7 10 -7 16
q1 4 6 10q2 3 9 10q7 6 10 9q17 20 21 25q16 22 6 40q-41 84 -63 87q-1 0 -19 9h-6zM135 422q4 -1 6 -3q12 -12 32 -40q20 -27 26 -40q3 -5 -4 -15q-3 -4 -19 -22l-20 -20q-11 -13 -11 -25q-1 -15 10 -31q9 -14 33 -37l1 -1l43 -44q0 -1 1 -1q23 -23 37 -32q19 -12 31 -11
q9 1 26 11q4 3 11 11t9 9q18 17 21 20q10 6 15 3q13 -6 40 -26t41 -32q4 -5 1 -16q-4 -13 -15 -23q-61 -61 -109 -55q-51 6 -139 94l-61 61q-88 88 -95 140q-6 48 55 109q10 10 24 14q5 2 10 2z" />
    <glyph glyph-name="uniF403" unicode="&#xf403;" 
d="M141 470q-10 -2 -10 -12v-53q-14 -3 -24 -15.5t-10 -27.5q0 -19 13.5 -32.5t32 -13.5t32 13.5t13.5 32.5q0 15 -9.5 27.5t-24.5 15.5v53q0 12 -11 12h-2zM368 470q-10 -2 -10 -12v-53q-15 -3 -24.5 -15.5t-9.5 -27.5q0 -19 13.5 -32.5t32 -13.5t32 13.5t13.5 32.5
q0 15 -10 27.5t-24 15.5v53q0 12 -12 12h-1zM75 447q-24 0 -40.5 -17t-16.5 -40v-362q0 -24 16.5 -40.5t40.5 -16.5h362q24 0 40.5 16.5t16.5 40.5v362q0 23 -16.5 40t-40.5 17h-34q-11 0 -11 -11.5t11 -11.5h34q14 0 24 -10t10 -24v-96h-430v96q0 14 10 24t24 10h34
q11 0 11 11.5t-11 11.5h-34zM177 447q-12 0 -12 -11.5t12 -11.5h158h1q11 0 11 11t-11 12h-1h-158zM143 384q9 0 15.5 -6.5t6.5 -16t-6.5 -16t-16 -6.5t-16 6.5t-6.5 16.5q5 19 23 22zM369.5 384q9.5 0 16 -6.5t6.5 -16t-6.5 -16t-16 -6.5t-16 6.5t-6.5 16t6.5 16t16 6.5z
M41 271h430v-243q0 -15 -10 -24.5t-24 -9.5h-362q-14 0 -24 9.5t-10 24.5v243z" />
    <glyph glyph-name="uniF404" unicode="&#xf404;" 
d="M339 57q-2 0 -5 2q-46 36 -75.5 67.5t-38.5 64.5q-5 16 3 30.5t24 19t30.5 -3.5t18.5 -24q9 -29 88 -92q6 -5 1 -11t-11 -1q-83 65 -93 100q-3 9 -11.5 14t-18 2t-14.5 -11.5t-2 -17.5q9 -31 37 -60.5t72 -64.5q6 -5 2 -11q-3 -3 -7 -3zM152 94q-6 0 -7 5q-3 8 5 10
q26 9 33 27q7 22 -4 74q-7 30 7 55t42 33t54.5 -6t34.5 -43q4 -16 71 -69q6 -5 1.5 -11.5t-11.5 -1.5q-70 56 -77 78q-6 22 -26 33t-43 5q-21 -6 -32 -26t-6 -44q13 -56 4 -82q-12 -34 -43 -37h-3zM202 49q-9 1 -8 8q0 7 1.5 13.5t4.5 17.5t10 18q6 7 16 7q18 0 40 -27
q4 -6 5 -7q6 -6 0 -12t-11 0q-2 3 -7 9q-15 21 -27 21q-6 0 -11 -13q-4 -13 -5 -28q-1 -7 -8 -7zM120 202q-8 0 -8 8q0 56 40 96q39 39 96 40q26 0 46 -7q20 -6 34 -19q15 -13 22 -22q7 -10 17 -26q17 -27 27 -30q7 -3 5 -10q-3 -8 -10 -5q-11 3 -18 11.5t-18 25.5
q-9 15 -15 23q-7 8 -19 20q-13 12 -31 17q-17 6 -40 6q-50 0 -85 -35q-33 -33 -35 -85q0 -8 -8 -8zM359 324q-4 0 -6 4q-9 13 -41 28q-31 16 -72 16q-42 0 -69 -16q-28 -15 -36 -28q-4 -7 -11 -3t-3 11q11 17 41 34q31 18 78 18q45 0 80 -18q36 -17 46 -34q4 -7 -3 -11
q-1 -1 -4 -1zM327 400h-2q-2 1 -9 3q-33 12 -76 12q-38 0 -59 -10l-10 -5q-7 -3 -10 4t4 11q3 1 9 4q24 12 66 12t81 -13q7 -2 9 -3q8 -3 5 -10t-8 -5zM401 266q-6 0 -7 6q-6 16 -16 30q-4 6 3 11q7 4 11 -3q13 -20 17 -34q2 -7 -5 -10h-3z" />
    <glyph glyph-name="uniF405" unicode="&#xf405;" 
d="M30 459zM28 461h454v-492h-454v492z" />
    <glyph glyph-name="uniF407" unicode="&#xf407;" horiz-adv-x="427" 
d="M213.5 405q88.5 0 151 -62.5t62.5 -150.5t-62.5 -150.5t-151 -62.5t-151 62.5t-62.5 150.5t62.5 150.5t151 62.5zM213.5 341q-26.5 0 -45.5 -18.5t-19 -45t19 -45.5t45.5 -19t45 19t18.5 45.5t-18.5 45t-45 18.5zM213.5 38q39.5 0 73 18.5t54.5 50.5q0 20 -23.5 35.5
t-52 23t-52 7.5t-52 -7.5t-52 -23t-24.5 -35.5q21 -32 55 -50.5t73.5 -18.5z" />
    <glyph glyph-name="uniF408" unicode="&#xf408;" 
d="M262 477l212 -86v-168q0 -89 -55 -163q-51 -67 -157 -93q-106 26 -157 93q-55 74 -55 163v168z" />
    <glyph glyph-name="uniF409" unicode="&#xf409;" 
d="M50 234q-10 116 42.5 181.5t163.5 65.5t163.5 -65.5t42.5 -181.5t-55 -186t-151 -70t-151 70t-55 186z" />
    <glyph glyph-name="uniF410" unicode="&#xf410;" 
d="M506 374q5 -35 5 -69v-72l-5 -159q-1 -26 -17 -42t-42 -18q-27 -2 -64 -3t-61 -1h-108q-113 0 -145 4l-8 1l-13 2l-12 5l-14 10l-10 17l-5 18l-2 7q-4 35 -4 159v72l4 69q2 27 17 42q14 15 43 18q27 2 64 3t61 1h24q196 0 233 -4q28 -3 42 -18q4 -4 7 -9.5t5 -11t3 -10.5
t2 -8v-3z" />
    <glyph glyph-name="uniF411" unicode="&#xf411;" 
d="M468 479q18 0 30.5 -12.5t12.5 -29.5v-426q0 -17 -12.5 -29.5t-30.5 -12.5h-415q-18 0 -35.5 12.5t-17.5 29.5v426q0 17 17.5 29.5t35.5 12.5h415z" />
    <glyph glyph-name="uniF412" unicode="&#xf412;" 
d="M458 468q18 0 30.5 -12.5t12.5 -29.5v-352q0 -18 -12.5 -30.5t-30.5 -12.5h-132l-64 -64l-64 64h-143q-18 0 -30.5 12.5t-12.5 30.5v352q0 17 12.5 29.5t30.5 12.5h403z" />
    <glyph glyph-name="uniF413" unicode="&#xf413;" 
d="M-1 226q0 105 76 181t181 76t181 -76t76 -181t-76 -181t-181 -76t-181 76t-76 181z" />
  </font>
</defs>
</svg>
